Aktualizacje seriali
 



Ogłoszenia
UFS - dotacje
Dotacje SMS
Jak korzystać z forumowej szukajki



Pokaż wyniki od 1 do 2 z 2

Wątek: The Croods [2013][WEBRip][X264][ENG][Animowany]

  1. #1
    Retired Awatar Liuk
     Info : 
    Dołączył
    Oct 2007
    Skąd
    nie w UE
    Posty
    1,780
     Podziękowania : 
    Podziękował: 239
    Doceniono: 6,305 razy w 228 postach
     UFS Stats Uploady : 
    Filmy: 128
    Gry: 80
    Programy: 1
    TV's: 13
    Muzyka: 36
    Porno: 294
    Inne: 1
     UFS Stats Konta : 
    Gmail: 15
    Inne: 18
     Total Upload : 
    P2M UP: 1101.4 GB
     Total CA : 
    Total CA: 310 AC
    Liuk jest nieaktywny

    m4ud The Croods [2013][WEBRip][X264][ENG][Animowany]

    Krudowie (2013)
    The Croods


    Produkcja: USA
    Gatunek: Animowany, Przygodowy, Komedia, Familijny
    Data Premiery: 2013-04-05 (kino), 2013-03-21 (świat), 2013-08-07 (dvd)
    Reżyseria: Kirk De Micco, Chris Sanders
    Scenariusz: Chris Sanders (również) (historia), Kirk De Micco (również) (historia)
    Czas trwania: 98 minut

    Więcej informacji: http://fdb.pl/film/12272-krudowie


    7/10 FDB


    W poszukiwaniu nowego domu staromodny jaskiniowiec musi przeprowadzić rodzinę przez prehistoryczne ziemie. Olbrzymich rozmiarów flora i fauna są sporym wyzwaniem, jednak prawdziwe komplikacje pojawią się w chwili, kiedy do rodziny dołączy jaskiniowiec zatrważająco nowoczesny. Jego poszukiwanie 'lepszego jutra' zupełnie nie pasuje do poglądów naszego hołdującego tradycji bohatera. (opis dystrybutora)


    Nicolas Cage - Grug(głos)Emma Stone - Eep(głos)Ryan Reynolds - Guy(głos)Catherine Keener - Ugga(głos)Cloris Leachman - Gran(głos)Clark Duke - Thunk(głos)Chris Sanders - Belt(głos)Randy Thom - Sandy(głos)
    Piotr Grabowski - Grag(polski dubbing)Natalia Sikora - Ip(polski dubbing)Lesław Żurek - Gaj(polski dubbing)Anna Guzik - Ugga(polski dubbing)







    Nazwa uploadu: The Croods 2013 WEBRip x264 AAC-BadMeetsEvil
    Nazwa pliku: The Croods 2013 WEBRip x264 AAC-BadMeetsEvil.mp4
    Rozmiar uploadu: 834 MB
    Rozmiar segmentu: 8 MB
    Ilość segmentów: 105
    Liczba mirrorów: 7
    Hasło do scalenia: www.mail4us.pl

    NFO:
    NFO:
    Source: 1080p.WEB-DL.x264.AAC-XLMV

    General
    Complete name: The Croods 2013 WEBRip x264 AAC-BadMeetsEvil.mp4
    Format: MPEG-4
    Format profile: Base Media
    Codec ID: isom
    File size: 835 MiB
    Duration: 1h 37mn
    Overall bit rate mode: Variable
    Overall bit rate: 1 192 Kbps
    Encoded date: UTC 2013-07-04 21:40:57
    Tagged date: UTC 2013-07-04 21:40:57

    Video
    ID: 1
    Format: AVC
    Format/Info: Advanced Video Codec
    Format profile: High@L4.1
    Format settings, CABAC: Yes
    Format settings, ReFrames: 3 frames
    Codec ID: avc1
    Codec ID/Info: Advanced Video Coding
    Duration: 1h 37mn
    Bit rate mode: Variable
    Bit rate: 1 058 Kbps
    Maximum bit rate: 40.0 Mbps
    Width: 720 pixels
    Height: 282 pixels
    Display aspect ratio: 2.553
    Frame rate mode: Constant
    Frame rate: 25.000 fps
    Color space: YUV
    Chroma subsampling: 4:2:0
    Bit depth: 8 bits
    Scan type: Progressive
    Bits/(Pixel*Frame): 0.208
    Stream size: 741 MiB (89%)
    Writing library: x264 core 133 r2334 a3ac64b

    Audio
    ID: 2
    Format: AAC
    Format/Info: Advanced Audio Codec
    Format profile: HE-AAC / LC
    Codec ID: 40
    Duration: 1h 37mn
    Bit rate mode: Variable
    Bit rate: 132 Kbps
    Maximum bit rate: 143 Kbps
    Channel(s): 2 channels
    Channel positions: Front: L R
    Sampling rate: 48.0 KHz / 24.0 KHz
    Compression mode: Lossy
    Delay relative to video: 750ms
    Stream size: 91.5 MiB (11%)
    Language: English
    Encoded date: UTC 2013-07-04 21:41:22
    Tagged date: UTC 2013-07-04 21:41:23







    Przepraszamy, ale nie możesz zobaczyć tego tematu. Musisz sie Zarejestrować
    albo Zalogować

    Ostatnio edytowane przez kadeshar ; 19-04-2014 o 12:54

  2. Liczba osób które doceniły autora: 2


  3.    Sponsored Links




  4. #2
    ..::nadworny alcoholic ::.. Awatar ozyrys
     Info : 
    Dołączył
    Oct 2007
    Skąd
    Internety
    Posty
    656
     Podziękowania : 
    Podziękował: 14
    Doceniono: 130 razy w 63 postach
     UFS Stats Uploady : 
    Filmy: 4
    TV's: 1
    Muzyka: 2
     UFS Stats Konta : 
    Gmail: 380
    Inne: 356
     Total Upload : 
    P2M UP: 180.75 GB
     Total CA : 
    Total CA: 19210 AC
    ozyrys jest nieaktywny

    Domyślnie

    Ostatnio edytowane przez kadeshar ; 19-04-2014 o 12:51


Informacje o wątku

Użytkownicy przeglądający ten wątek

Aktualnie 1 użytkownik(ów) przegląda ten wątek. (0 zarejestrowany(ch) oraz 1 gości)

Podobne wątki

  1. 0.7GB The Croods [2013][WEBRip][NAPISY]
    Przez piotrex w dziale HQ (High Quality - Wysoka Jakość)
    Odpowiedzi: 1
    Ostatni post / autor: 20-07-2013, 19:30

Uprawnienia umieszczania postów

  • Nie możesz zakładać nowych tematów
  • Nie możesz pisać wiadomości
  • Nie możesz dodawać załączników
  • Nie możesz edytować swoich postów
  •