Aktualizacje seriali
 



Ogłoszenia
UFS - dotacje
Dotacje SMS
Jak korzystać z forumowej szukajki



Pokaż wyniki od 1 do 2 z 2

Wątek: Beautiful Creatures [2013][HDRip][AC3][ENG]

  1. #1
    HardcorowY
    Guest
     Podziękowania : 

    m4ud Beautiful Creatures [2013][HDRip][AC3][ENG]

    Piękne istoty (2013)
    Beautiful Creatures


    Produkcja: USA
    Gatunek: Dramat, Fantasy, Romans
    Data Premiery: 2013-02-13 (kino), 2013-02-13 (świat)
    Reżyseria: Richard LaGravenese
    Scenariusz: Richard LaGravenese, Kami Garcia (powieść)
    Czas trwania: 124 minut

    Więcej informacji: http://fdb.pl/film/397389-piekne-istoty


    7/10 FDB


    Ethan jest zupełnie zwyczajnym nastolatkiem, ale skrywa pewną tajemnicę - od wielu miesięcy śni o pewnej dziewczynie. Gdy pewnego dnia spotyka ją na szkolnym korytarzu, jego życie zmienia się na zawsze, podobnie jak losy wielu mieszkańców Gatlin. Lena mieszka w ponurej posiadłości swego wuja, którego mieszkańcy Gatlin uważają za szaleńca i czciciela Szatana. Dziewczyna nie szuka towarzystwa rówieśników, chodzi swoimi drogami i sprawia wrażenie jakby była "nie z tego świata". Między dwojgiem tak różnych od siebie istot zaczyna rodzić się uczucie, które wkrótce stanie się śmiertelnym zagrożeniem dla Ethana. Lena wyznaje mu bowiem, że jej rodzina od wieków związana jest z czarną magią, a jej nie wolno wiązać się ze zwykłymi śmiertelnikami. Mroczne siły zła niedługo upomną się o zakochanych… (opis dystrybutora)


    Alden Ehrenreich - Ethan WateAlice Englert - Lena DuchanessJeremy Irons - Macon RavenwoodViola Davis - AmmaEmmy Rossum - Ridley DuchanessThomas Mann - LinkEmma Thompson - Pani Lincoln / SarafineEileen Atkins - Babcia







    Nazwa pliku: Beautiful.Creatures.2013.HDRip.XVID.AC3.HQ.Hive-CM8.avi
    Rozmiar uploadu: 1676 MB
    Rozmiar segmentu: 8 MB
    Ilość segmentów: 210
    Liczba mirrorów: 10
    Hasło do scalenia: www.mail4us.pl

    NFO:
    NFO:
    General
    Complete name : Beautiful.Creatures.2013.HDRip.XVID.AC3.HQ.Hive-CM8.avi
    Format : AVI
    Format/Info : Audio Video Interleave
    File size : 1.64 GiB
    Duration : 2h 3mn
    Overall bit rate : 1 894 Kbps
    Writing application : Nandub v1.0rc2
    Writing library : Nandub build 1853/release

    Video
    ID : 0
    Format : MPEG-4 Visual
    Format profile : Advanced Simple@L5
    Format settings, BVOP : 2
    Format settings, QPel : Yes
    Format settings, GMC : No warppoints
    Format settings, Matrix : Default (H.263)
    Muxing mode : Packed bitstream
    Codec ID : XVID
    Codec ID/Hint : XviD
    Duration : 2h 3mn
    Bit rate : 1 500 Kbps
    Width : 720 pixels
    Height : 304 pixels
    Display aspect ratio : 2.35:1
    Frame rate : 23.976 fps
    Color space : YUV
    Chroma subsampling : 4:2:0
    Bit depth : 8 bits
    Scan type : Progressive
    Compression mode : Lossy
    Bits/(Pixel*Frame) : 0.286
    Stream size : 1.30 GiB (79%)
    Writing library : XviD 1.2.1 (UTC 2008-12-04)

    Audio
    ID : 1
    Format : AC-3
    Format/Info : Audio Coding 3
    Mode extension : CM (complete main)
    Format settings, Endianness : Big
    Codec ID : 2000
    Duration : 2h 3mn
    Bit rate mode : Constant
    Bit rate : 384 Kbps
    Channel(s) : 6 channels
    Channel positions : Front: L C R, Side: L R, LFE
    Sampling rate : 48.0 KHz
    Bit depth : 16 bits
    Compression mode : Lossy
    Stream size : 340 MiB (20%)
    Alignment : Split accross interleaves
    Interleave, duration : 42 ms (1.00 video frame)
    Interleave, preload duration : 500 ms


    Podziękowania za konta:
    Dla wszystkich konciarzy xd







    Przepraszamy, ale nie możesz zobaczyć tego tematu. Musisz sie Zarejestrować
    albo Zalogować

    Ostatnio edytowane przez kadeshar ; 20-04-2014 o 21:14

  2.    Sponsored Links




  3. #2
    piotrex
    Guest
     Podziękowania : 

    Domyślnie

    Ostatnio edytowane przez kadeshar ; 20-04-2014 o 21:13

Informacje o wątku

Użytkownicy przeglądający ten wątek

Aktualnie 1 użytkownik(ów) przegląda ten wątek. (0 zarejestrowany(ch) oraz 1 gości)

Podobne wątki

  1. 1.6GB Beautiful Creatures [2013][WEB-DL][ENG]
    Przez F3 w dziale HQ (High Quality - Wysoka Jakość)
    Odpowiedzi: 1
    Ostatni post / autor: 01-05-2013, 14:08

Uprawnienia umieszczania postów

  • Nie możesz zakładać nowych tematów
  • Nie możesz pisać wiadomości
  • Nie możesz dodawać załączników
  • Nie możesz edytować swoich postów
  •