Aktualizacje seriali
 



Ogłoszenia
UFS - dotacje
Dotacje SMS
Jak korzystać z forumowej szukajki



Pokaż wyniki od 1 do 2 z 2

Wątek: The Company You Keep [2012][DVDRip][AC3][ENG]

  1. #1
    Awatar JRK
     Info : 
    Dołączył
    Nov 2007
    Posty
    7,425
     Podziękowania : 
    Podziękował: 2,541
    Doceniono: 16,715 razy w 517 postach
     UFS Stats Uploady : 
    Filmy: 438
    Gry: 51
    Programy: 41
    TV's: 6
    Muzyka: 40
    Inne: 15
    Małe uploady: 1
     UFS Stats Konta : 
    Gmail: 79
    Inne: 177
     Total Upload : 
    P2M UP: 2723.7 GB
     Total CA : 
    Total CA: 8275 AC
    JRK jest nieaktywny

    m4ud The Company You Keep [2012][DVDRip][AC3][ENG]

    The Company You Keep (2012)


    Produkcja: USA
    Gatunek: Thriller
    Data Premiery: 2012-09-06 (świat)
    Reżyseria: Robert Redford
    Scenariusz: Lem Dobbs, Neil Gordon (powieść)
    Czas trwania: 125 minut

    Więcej informacji: http://fdb.pl/film/222803-the-company-you-keep


    5/10 FDB


    A thriller centered on a former Weather Underground activist who
    goes on the run from a journalist who has discovered his identity


    Robert Redford - Jim GrantShia LaBeouf - Ben ShepardJulie Christie - Mimi LurieSam Elliott - Mac McLeodJackie Evancho - Isabel GrantBrendan Gleeson - Henry OsborneTerrence Howard - CorneliusRichard Jenkins - Jed Lewis







    General
    Complete name : The.Company.You.Keep.2012.DVDRip.XVID.AC3.HQ.Hive-CM8.avi
    Format : AVI
    Format/Info : Audio Video Interleave
    File size : 1.60 GiB
    Duration : 1h 57mn
    Overall bit rate : 1 957 Kbps
    Writing application : Nandub v1.0rc2
    Writing library : Nandub build 1853/release

    Video
    ID : 0
    Format : MPEG-4 Visual
    Format profile : Advanced Simple@L5
    Format settings, BVOP : 2
    Format settings, QPel : Yes
    Format settings, GMC : No warppoints
    Format settings, Matrix : Default (H.263)
    Muxing mode : Packed bitstream
    Codec ID : XVID
    Codec ID/Hint : XviD
    Duration : 1h 57mn
    Bit rate : 1 499 Kbps
    Width : 720 pixels
    Height : 304 pixels
    Display aspect ratio : 2.35:1
    Frame rate : 25.000 fps
    Color space : YUV
    Chroma subsampling : 4:2:0
    Bit depth : 8 bits
    Scan type : Progressive
    Compression mode : Lossy
    Bits/(Pixel*Frame) : 0.274
    Stream size : 1.23 GiB (77%)
    Writing library : XviD 1.2.1 (UTC 2008-12-04)

    Audio
    ID : 1
    Format : AC-3
    Format/Info : Audio Coding 3
    Mode extension : CM (complete main)
    Format settings, Endianness : Big
    Codec ID : 2000
    Duration : 1h 57mn
    Bit rate mode : Constant
    Bit rate : 448 Kbps
    Channel(s) : 6 channels
    Channel positions : Front: L C R, Side: L R, LFE
    Sampling rate : 48.0 KHz
    Bit depth : 16 bits
    Compression mode : Lossy
    Stream size : 376 MiB (23%)
    Alignment : Split accross interleaves
    Interleave, duration : 40 ms (1.00 video frame)
    Interleave, preload duration : 500 ms


    Nazwa uploadu: The.Company.You.Keep.2012.DVDRip.XVID.AC3.HQ.Hive-CM8
    Nazwa pliku: The.Company.You.Keep.2012.DVDRip.XVID.AC3.HQ.Hive-CM8.avi
    Rozmiar uploadu: 1640 MB
    Ilość segmentów: 165
    Rozmiar segmentu: 10 MB
    Liczba mirrorów: 7
    Hasło do scalenia: www.mail4us.pl

    Podziękowania za konta:
    piotrex







    Przepraszamy, ale nie możesz zobaczyć tego tematu. Musisz sie Zarejestrować
    albo Zalogować

    Ostatnio edytowane przez Igrek ; 18-02-2014 o 22:19

  2.    Sponsored Links




  3. #2
    Retired Awatar Igrek
     Info : 
    Dołączył
    May 2010
    Posty
    2,414
     Podziękowania : 
    Podziękował: 70
    Doceniono: 551 razy w 158 postach
     UFS Stats Uploady : 
    Filmy: 301
    Gry: 105
    Programy: 5
    TV's: 31
    Muzyka: 63
    Porno: 3
    Inne: 5
     UFS Stats Konta : 
    Inne: 1
     Total Upload : 
    P2M UP: 2185.5 GB
     Total CA : 
    Total CA: 210 AC
    Igrek jest nieaktywny

    Domyślnie

    niezatwierdzone

Informacje o wątku

Użytkownicy przeglądający ten wątek

Aktualnie 1 użytkownik(ów) przegląda ten wątek. (0 zarejestrowany(ch) oraz 1 gości)

Uprawnienia umieszczania postów

  • Nie możesz zakładać nowych tematów
  • Nie możesz pisać wiadomości
  • Nie możesz dodawać załączników
  • Nie możesz edytować swoich postów
  •