Aktualizacje seriali
 



Ogłoszenia
UFS - dotacje
Dotacje SMS
Jak korzystać z forumowej szukajki



Pokaż wyniki od 1 do 2 z 2

Wątek: Life of Pi [2012][DVDscr][ENG]

  1. #1
    ..::nadworny alcoholic ::.. Awatar ozyrys
     Info : 
    Dołączył
    Oct 2007
    Skąd
    Internety
    Posty
    656
     Podziękowania : 
    Podziękował: 14
    Doceniono: 130 razy w 63 postach
     UFS Stats Uploady : 
    Filmy: 4
    TV's: 1
    Muzyka: 2
     UFS Stats Konta : 
    Gmail: 380
    Inne: 356
     Total Upload : 
    P2M UP: 180.75 GB
     Total CA : 
    Total CA: 19210 AC
    ozyrys jest teraz aktywny

    m4ud Life of Pi [2012][DVDscr][ENG]

    Życie Pi (2012)
    Life of Pi


    Produkcja: USA | Chiny
    Gatunek: Przygodowy, Dramat
    Data Premiery: 2013-01-11 (kino), 2012-12-14 (świat)
    Reżyseria: Ang Lee
    Scenariusz: Yann Martel, David Magee
    Czas trwania: 127 minut

    Więcej informacji: http://fdb.pl/film/52929-zycie-pi


    7/10 FDB


    Historia skupia się na Pi Patelu, nad wiek rozwiniętym synu pracownika zoo, którego rodzina decyduje się na przeprowadzkę z Indii do Kanady. Udaje im się załapać na frachtowiec, ale niestety, podczas podróży, statek się rozbija. Pi, jako jedyny ocalały człowiek, dryfuje po Pacyfiku w jednej łodzi ratunkowej razem z zebrą, hieną, orangutanem oraz tygrysem bengalskim. Wszyscy walczą o przetrwanie. (nathalie)


    Suraj Sharma - Piscine Molitor "Pi" PatelRafe Spall - PisarzIrrfan Khan - Starszy PiTabu - Matka PiAdil Hussain - Ojciec PiGérard Depardieu - FrancuzShravanthi Sainath - Dziewczyna PiAyush Tandon - Młody Pi
    Piotr Bajtlik - Pi(polski dubbing)Miłogost Reczek - Patel(polski dubbing)Jacek Kopczyński - Pisarz(polski dubbing)Andrzej Chudy - Santosch(polski dubbing)







    Nazwa uploadu: Life
    Nazwa pliku: Life.avi
    Rozmiar uploadu: 725 MB
    Ilość segmentów: 91
    Rozmiar segmentu: 8 MB
    Liczba mirrorów: 6
    Hasło do scalenia: www.mail4us.pl

    NFO:
    NFO:
    Format                                   : AVI
    Format/Info : Audio Video Interleave
    File size : 726 MiB
    Duration : 2h 3mn
    Overall bit rate : 824 Kbps
    Writing application : VirtualDubMod 1.5.10.2 (build 2540/release)
    Writing library : VirtualDubMod build 2540/release

    Video
    ID : 0
    Format : MPEG-4 Visual
    Format profile : Advanced Simple@L5
    Format settings, BVOP : 2
    Format settings, QPel : No
    Format settings, GMC : No warppoints
    Format settings, Matrix : Default (H.263)
    Muxing mode : Packed bitstream
    Codec ID : XVID
    Codec ID/Hint : XviD
    Duration : 2h 3mn
    Bit rate : 687 Kbps
    Width : 624 pixels
    Height : 342 pixels
    Display aspect ratio : 1.85:1
    Frame rate : 23.976 fps
    Color space : YUV
    Chroma subsampling : 4:2:0
    Bit depth : 8 bits
    Scan type : Progressive
    Compression mode : Lossy
    Bits/(Pixel*Frame) : 0.134
    Stream size : 605 MiB (83%)
    Writing library : XviD 64

    Audio
    ID : 1
    Format : MPEG Audio
    Format version : Version 1
    Format profile : Layer 3
    Codec ID : 55
    Codec ID/Hint : MP3
    Duration : 2h 3mn
    Bit rate mode : Constant
    Bit rate : 128 Kbps
    Channel(s) : 2 channels
    Sampling rate : 48.0 KHz
    Compression mode : Lossy
    Stream size : 113 MiB (16%)
    Alignment : Split accross interleaves
    Interleave, duration : 42 ms (1.00 video frame)
    Interleave, preload duration : 500 ms







    Przepraszamy, ale nie możesz zobaczyć tego tematu. Musisz sie Zarejestrować
    albo Zalogować


  2.    Sponsored Links




  3. #2
    Retired
     Info : 
    Dołączył
    Feb 2011
    Posty
    2,089
     Podziękowania : 
    Podziękował: 20
    Doceniono: 396 razy w 125 postach
     UFS Stats Uploady : 
     UFS Stats Konta : 
     Total Upload : 
    P2M UP: 2198 GB
     Total CA : 
    Total CA: 890 AC
    bodzio pl jest nieaktywny

    Domyślnie

    niezatwierdzone
    Ostatnio edytowane przez ozyrys ; 06-02-2014 o 16:54

Informacje o wątku

Użytkownicy przeglądający ten wątek

Aktualnie 1 użytkownik(ów) przegląda ten wątek. (0 zarejestrowany(ch) oraz 1 gości)

Podobne wątki

  1. 0.7GB The Life of Pi [2012][DVDScr][ENG][Napisy PL]
    Przez Szatan w dziale HQ (High Quality - Wysoka Jakość)
    Odpowiedzi: 1
    Ostatni post / autor: 19-01-2013, 21:56
  2. 0.7GB High Life [2009][DVDScr][ENG]
    Przez Cajun w dziale HQ (High Quality - Wysoka Jakość)
    Odpowiedzi: 1
    Ostatni post / autor: 27-01-2010, 04:57

Uprawnienia umieszczania postów

  • Nie możesz zakładać nowych tematów
  • Nie możesz pisać wiadomości
  • Nie możesz dodawać załączników
  • Nie możesz edytować swoich postów
  •