Aktualizacje seriali
 



Ogłoszenia
UFS - dotacje
Dotacje SMS
Jak korzystać z forumowej szukajki



Pokaż wyniki od 1 do 2 z 2

Wątek: Taken 2 [2012][DVDRip][ENG]

  1. #1
    Retired Awatar F3
     Info : 
    Dołączył
    Mar 2008
    Posty
    6,908
     Podziękowania : 
    Podziękował: 166
    Doceniono: 22,390 razy w 934 postach
     UFS Stats Uploady : 
    Filmy: 2064
    Gry: 219
    Programy: 29
    TV's: 238
    Muzyka: 159
    Porno: 256
    Inne: 31
     UFS Stats Konta : 
    Gmail: 194
    Inne: 458
     Total Upload : 
    P2M UP: 9618.9 GB
     Total CA : 
    Total CA: 16710 AC
    F3 jest nieaktywny

    m4ud Taken 2 [2012][DVDRip][ENG]

    Uprowadzona 2 (2012)
    Taken 2


    Produkcja: Francja
    Gatunek: Akcja, Kryminał, Dramat, Thriller
    Data Premiery: 2012-10-05 (kino), 2012-10-03 (świat)
    Reżyseria: Olivier Megaton
    Scenariusz: Luc Besson, Robert Mark Kamen
    Czas trwania: 91 minut

    Więcej informacji: http://fdb.pl/film/379095-uprowadzona-2


    7/10 FDB


    Po odbiciu córki z rąk porywaczy w części pierwszej, teraz Bryan Mills (Liam Neeson) wraz z żoną Lenore (Famke Janssen) i Kim (Maggie Grace) jadą na wakacje do tureckiego Stambułu. Tam całą trójkę chce uprowadzić Murad (Rade Šerbedžija), ojciec jednego z zabitych porywaczy. Zaczyna się gra o przetrwanie... (ferhin2)


    Liam Neeson - Bryan MillsMaggie Grace - KimFamke Janssen - LenoreLeland Orser - SamJon Gries - CaseyD.B. Sweeney - BernieLuke Grimes - JamieRade Šerbedžija - Murad Krasniqi






    Trailer



    Hasło do scalenia: www.mail4us.pl

    NFO:
    NFO:
    File size                                : 1.36 GiB
    Duration : 1h 32mn
    Overall bit rate : 2 095 Kbps

    Video
    ID : 0

    Codec ID : XVID
    Codec ID/Hint : XviD
    Duration : 1h 32mn
    Bit rate : 1 704 Kbps
    Width : 720 pixels
    Height : 304 pixels
    Display aspect ratio : 2.35:1
    Frame rate : 23.976 fps
    Color space : YUV
    Chroma subsampling : 4:2:0
    Bit depth : 8 bits
    Scan type : Progressive
    Compression mode : Lossy
    Bits/(Pixel*Frame) : 0.325
    Stream size : 1.10 GiB (81%)
    Writing library : XviD 64

    Audio
    ID : 1
    Format : AC-3
    Format/Info : Audio Coding 3
    Mode extension : CM (complete main)
    Format settings, Endianness : Big
    Codec ID : 2000
    Duration : 1h 32mn
    Bit rate mode : Constant
    Bit rate : 384 Kbps
    Channel(s) : 6 channels
    Channel positions : Front: L C R, Side: L R, LFE
    Sampling rate : 44.1 KHz
    Bit depth : 16 bits
    Compression mode : Lossy
    Stream size : 253 MiB (18%)







    Przepraszamy, ale nie możesz zobaczyć tego tematu. Musisz sie Zarejestrować
    albo Zalogować

    Ostatnio edytowane przez Igrek ; 23-02-2014 o 19:57

  2. Liczba osób które doceniły autora: 2


  3.    Sponsored Links




  4. #2
    Retired Awatar Igrek
     Info : 
    Dołączył
    May 2010
    Posty
    2,414
     Podziękowania : 
    Podziękował: 70
    Doceniono: 551 razy w 158 postach
     UFS Stats Uploady : 
    Filmy: 301
    Gry: 105
    Programy: 5
    TV's: 31
    Muzyka: 63
    Porno: 3
    Inne: 5
     UFS Stats Konta : 
    Inne: 1
     Total Upload : 
    P2M UP: 2185.5 GB
     Total CA : 
    Total CA: 210 AC
    Igrek jest nieaktywny

    Domyślnie

    niezatwierdzone

Informacje o wątku

Użytkownicy przeglądający ten wątek

Aktualnie 1 użytkownik(ów) przegląda ten wątek. (0 zarejestrowany(ch) oraz 1 gości)

Uprawnienia umieszczania postów

  • Nie możesz zakładać nowych tematów
  • Nie możesz pisać wiadomości
  • Nie możesz dodawać załączników
  • Nie możesz edytować swoich postów
  •