Aktualizacje seriali
 



Ogłoszenia
UFS - dotacje
Dotacje SMS
Jak korzystać z forumowej szukajki



Pokaż wyniki od 1 do 2 z 2

Wątek: Kon-Tiki [2012][DVDRip][NO]

  1. #1
    Retired Awatar Liuk
     Info : 
    Dołączył
    Oct 2007
    Skąd
    nie w UE
    Posty
    1,780
     Podziękowania : 
    Podziękował: 239
    Doceniono: 6,303 razy w 228 postach
     UFS Stats Uploady : 
    Filmy: 128
    Gry: 80
    Programy: 1
    TV's: 13
    Muzyka: 36
    Porno: 294
    Inne: 1
     UFS Stats Konta : 
    Gmail: 15
    Inne: 18
     Total Upload : 
    P2M UP: 1101.4 GB
     Total CA : 
    Total CA: 310 AC
    Liuk jest nieaktywny

    m4ud Kon-Tiki [2012][DVDRip][NO]

    Kon-Tiki (2012)
    Kon-Tiki


    Produkcja: Dania, Norwegia, Wielka Brytania
    Gatunek: Biograficzny, Przygodowy, Dramat historyczny
    Data Premiery: 24 sierpnia 2012 (świat)
    Reżyseria: Joachim Roenning, Espen Sandberg
    Scenariusz: Petter Skavlan
    Czas trwania: 1h 53mn

    Więcej informacji: http://www.filmweb.pl/film/Kon-Tiki-2012-575936


    8/10 Filwmweb


    W roku 1947 świat zmęczony wojną zafascynował się młodym norwegiem Thorem Heyerdahlem, który opracował rewolucyjną teorię, iż Polinezja, wbrew wcześniej ustalonej teorii naukowej dotyczącej migracji z Azji, została zaludniona przez mieszkańców Ameryki Południowej. Aby udowodnić swoją teorię, zrobił coś niewyobrażalnego: zdecydował się wyruszyć w wyprawę przez Pacyfik. Za środek transportu posłużyła my prymitywna tratwa wykonana z drzewa balsa, którą ochrzcił Kon-Tiki, na cześć boga słońca. W tej pełnej przygód i niebezpieczeństw podróży, na dystansie blisko 8000 km, towarzyszyło mu pięciu kompletnie obcych sobie młodych mężczyzn. Co więcej tylko jeden z nich potrafił żeglować. Sam Thor, bał się wody i nie potrafił pływać, jednak był gotów poświęcić wszystko i wszystkich, aby udowodnić, że ma rację.

    Film Kon-Tiki to ekranizacja prawdziwych wydarzeń. To osobista opowieść o pełnej przygód wyprawie, która na zawsze zmieniła ludzi, którzy brali w niej udział, a której akcja rozgrywa się w wielu malowniczych miejscach takich jak: Norwegia, Polinezja, USA, Peru i na Pacyfiku. Kon-Tiki to epicka historia o odwadze, by wbrew sceptykom, walczyć o własne przekonania i zrobić to, co inni uważają za niemożliwe.


    Pal Sverre Valheim Hagen Thor Heyerdahl

    Anders Baasmo Christiansen Herman Watzinger

    Gustaf Skarsgard Bengt Danielsson

    Odd-Magnus Williamson Erik Hesselberg



    Tobias Santelmann Knut Haugland

    Jakob Oftebro Torstein Raaby

    Agnes Kittelsen Liv Heyerdahl

    Manuel Cauchi Jose Bustamente


    Nazwa uploadu: Kon-Tiki 2012 DVDRip XviD NEWERA
    Nazwa pliku: Kon-Tiki 2012 DVDRip XviD NEWERA.avi
    Rozmiar uploadu: 1397 MB
    Rozmiar segmentu: 8 MB
    Ilość segmentów: 175
    Liczba mirrorów: 7
    Hasło do scalenia: www.mail4us.pl

    NFO:
    NFO:
    Format                                   : AVI
    Format/Info : Audio Video Interleave
    File size : 1.36 GiB
    Duration : 1h 53mn
    Overall bit rate : 1 715 Kbps
    Writing application : VirtualDubMod 1.5.10.2 (build 2540/release)
    Writing library : VirtualDubMod build 2540/release



    Video

    ID : 0
    Format : MPEG-4 Visual
    Format profile : Advanced Simple@L5
    Format settings, BVOP : 2
    Format settings, QPel : No
    Format settings, GMC : No warppoints
    Format settings, Matrix : Default (H.263)
    Muxing mode : Packed bitstream
    Codec ID : XVID
    Codec ID/Hint : XviD
    Duration : 1h 53mn
    Bit rate : 1 513 Kbps
    Width : 720 pixels
    Height : 304 pixels
    Display aspect ratio : 2.35:1
    Frame rate : 25.000 fps
    Color space : YUV
    Chroma subsampling : 4:2:0
    Bit depth : 8 bits
    Scan type : Progressive
    Compression mode : Lossy
    Bits/(Pixel*Frame) : 0.276
    Stream size : 1.20 GiB (88%)
    Writing library : XviD 64



    Audio

    ID : 1
    Format : AC-3
    Format/Info : Audio Coding 3
    Mode extension : CM (complete main)
    Format settings, Endianness : Big
    Codec ID : 2000
    Duration : 1h 53mn
    Bit rate mode : Constant
    Bit rate : 192 Kbps
    Channel(s) : 2 channels
    Channel positions : Front: L R
    Sampling rate : 48.0 KHz
    Bit depth : 16 bits
    Compression mode : Lossy
    Stream size : 156 MiB (11%)
    Alignment : Split accross interleaves
    Interleave, duration : 40 ms (1.00 video frame)
    Interleave, preload duration : 500 ms







    Przepraszamy, ale nie możesz zobaczyć tego tematu. Musisz sie Zarejestrować
    albo Zalogować

    Ostatnio edytowane przez jeep ; 04-10-2015 o 13:12

  2. Liczba osób które doceniły autora: 1


  3.    Sponsored Links




  4. #2
    ..::nadworny alcoholic ::.. Awatar ozyrys
     Info : 
    Dołączył
    Oct 2007
    Skąd
    Internety
    Posty
    656
     Podziękowania : 
    Podziękował: 14
    Doceniono: 130 razy w 63 postach
     UFS Stats Uploady : 
    Filmy: 4
    TV's: 1
    Muzyka: 2
     UFS Stats Konta : 
    Gmail: 380
    Inne: 356
     Total Upload : 
    P2M UP: 180.75 GB
     Total CA : 
    Total CA: 19210 AC
    ozyrys jest nieaktywny

    Domyślnie

    [#][/#]


Informacje o wątku

Użytkownicy przeglądający ten wątek

Aktualnie 1 użytkownik(ów) przegląda ten wątek. (0 zarejestrowany(ch) oraz 1 gości)

Podobne wątki

  1. 0.7GB Kon-Tiki [2012][DVDRip][ENG][Napisy PL]
    Przez Santi w dziale HQ (High Quality - Wysoka Jakość)
    Odpowiedzi: 1
    Ostatni post / autor: 23-02-2013, 09:07

Uprawnienia umieszczania postów

  • Nie możesz zakładać nowych tematów
  • Nie możesz pisać wiadomości
  • Nie możesz dodawać załączników
  • Nie możesz edytować swoich postów
  •