Aktualizacje seriali
 



Ogłoszenia
UFS - dotacje
Dotacje SMS
Jak korzystać z forumowej szukajki



Pokaż wyniki od 1 do 2 z 2

Wątek: The Raven [2012][R5][ENG]

  1. #1
    VIP Awatar Bull
     Info : 
    Dołączył
    Dec 2007
    Posty
    368
     Podziękowania : 
    Podziękował: 435
    Doceniono: 108 razy w 24 postach
     UFS Stats Uploady : 
    Filmy: 129
    Gry: 11
    TV's: 1
    Porno: 7
     Total Upload : 
    P2M UP: 319.9 GB
    Bull jest nieaktywny

    m4ud The Raven [2012][R5][ENG]

    The Raven (2012)


    Produkcja: USA | Węgry | Hiszpania
    Gatunek: Thriller
    Data Premiery: 2012-03-09 (świat)
    Reżyseria: James McTeigue
    Scenariusz: Ben Livingston, Hannah Shakespeare
    Czas trwania: 111 minut

    Więcej informacji: http://fdb.pl/film/252495-the-raven


    Edgar Allan Poe łączy siły z detektywem z Baltimore w celu ujęcia szalonego mordercy, który używa utworów Edgara jako podstawy do brutalnych zabójstw. Kiedy znaleziono zwłoki matki i córki, detektyw Emmett Fields dochodzi do wstrząsającego odkrycia. Morderstwo bowiem przypomina to, które opisał Poe w jednym ze swoich utworów.


    John Cusack - Edgar Allan Poe Luke Evans - Emmett Fields, detektyw Alice Eve - Emily Brendan Gleeson - Kpt. Hamilton Kevin McNally - Maddux Oliver Jackson-Cohen - John Cantrell Jimmy Yuill - Kpt. Eldridge Sam Hazeldine - Ivan

    Trailer



    Format: AVI
    Format/Info: Audio Video Interleave
    File size: 1.61 GiB
    Duration: 1h 45mn
    Overall bit rate: 2 175 Kbps

    Video
    ID: 0
    Format: MPEG-4 Visual
    Format profile: Advanced Simple@L5
    Format settings, BVOP: 2
    Format settings, QPel: No
    Format settings, GMC: No warppoints
    Format settings, Matrix: Default (H.263)
    Codec ID: XVID
    Codec ID/Hint: XviD
    Duration: 1h 45mn
    Bit rate: 1 971 Kbps
    Width: 720 pixels
    Height: 320 pixels
    Display aspect ratio: 2.25:1
    Frame rate: 25.000 fps
    Color space: YUV
    Chroma subsampling: 4:2:0
    Bit depth: 8 bits
    Scan type: Progressive
    Compression mode: Lossy
    Bits/(Pixel*Frame): 0.342
    Stream size: 1.46 GiB (91%)
    Writing library: XviD 63

    Audio
    ID: 1
    Format: MPEG Audio
    Format version: Version 1
    Format profile: Layer 3
    Mode: Joint stereo
    Mode extension: MS Stereo
    Codec ID: 55
    Codec ID/Hint: MP3
    Duration: 1h 45mn
    Bit rate mode: Constant
    Bit rate: 32.0 Kbps
    Channel(s): 2 channels
    Sampling rate: 48.0 KHz
    Compression mode: Lossy
    Stream size: 145 MiB (9%)


    Nazwa uploadu: The Raven (2012) R5 READNFO XviD-BBnRG.part1
    Nazwa pliku: The Raven (2012) R5 READNFO XviD-BBnRG.part1.rar
    Rozmiar uploadu: 950 MB
    Rozmiar segmentu: 8 MB
    Ilość segmentów: 119
    Liczba mirrorów: 6

    Nazwa uploadu: The Raven (2012) R5 READNFO XviD-BBnRG.part2
    Nazwa pliku: The Raven (2012) R5 READNFO XviD-BBnRG.part2.rar
    Rozmiar uploadu: 871 MB
    Rozmiar segmentu: 8 MB
    Ilość segmentów: 109
    Liczba mirrorów: 6
    [b]
    Hasło do scalenia: www.mail4us.pl






    Przepraszamy, ale nie możesz zobaczyć tego tematu. Musisz sie Zarejestrować
    albo Zalogować

    Ostatnio edytowane przez jeep ; 04-10-2015 o 01:58

  2.    Sponsored Links




  3. #2
    Retired
     Info : 
    Dołączył
    Feb 2011
    Posty
    2,089
     Podziękowania : 
    Podziękował: 20
    Doceniono: 395 razy w 125 postach
     UFS Stats Uploady : 
     UFS Stats Konta : 
     Total Upload : 
    P2M UP: 2198 GB
     Total CA : 
    Total CA: 890 AC
    bodzio pl jest nieaktywny

    Domyślnie


Informacje o wątku

Użytkownicy przeglądający ten wątek

Aktualnie 1 użytkownik(ów) przegląda ten wątek. (0 zarejestrowany(ch) oraz 1 gości)

Podobne wątki

  1. 0.7GB Raven, The [2012][BDRip][ENG]
    Przez Santi w dziale HQ (High Quality - Wysoka Jakość)
    Odpowiedzi: 2
    Ostatni post / autor: 19-07-2012, 22:44
  2. 0.7GB The Raven [2012][BDRip][ENG]
    Przez d3 w dziale HQ (High Quality - Wysoka Jakość)
    Odpowiedzi: 1
    Ostatni post / autor: 17-07-2012, 17:46
  3. The Raven [2012][R5][ENG]
    Przez eMPeK w dziale HQ (High Quality - Wysoka Jakość)
    Odpowiedzi: 1
    Ostatni post / autor: 07-07-2012, 16:53
  4. 1.4GB The Raven [2012][R5][ENG]
    Przez zguto w dziale HQ (High Quality - Wysoka Jakość)
    Odpowiedzi: 1
    Ostatni post / autor: 07-07-2012, 01:58

Uprawnienia umieszczania postów

  • Nie możesz zakładać nowych tematów
  • Nie możesz pisać wiadomości
  • Nie możesz dodawać załączników
  • Nie możesz edytować swoich postów
  •