Aktualizacje seriali
 



Ogłoszenia
UFS - dotacje
Dotacje SMS
Jak korzystać z forumowej szukajki



Pokaż wyniki od 1 do 2 z 2

Wątek: Midnight Son [2011][DVDRip][ENG]

  1. #1
    VIP Awatar Bull
     Info : 
    Dołączył
    Dec 2007
    Posty
    368
     Podziękowania : 
    Podziękował: 435
    Doceniono: 108 razy w 24 postach
     UFS Stats Uploady : 
    Filmy: 129
    Gry: 11
    TV's: 1
    Porno: 7
     Total Upload : 
    P2M UP: 319.9 GB
    Bull jest nieaktywny

    m4ud Midnight Son [2011][DVDRip][ENG]

    Midnight Son (2011)


    Produkcja: USA
    Gatunek: Horror, Dramat
    Data Premiery: 19.07.2011 - Świat
    Reżyseria: Scott Leberecht
    Scenariusz: Scott Leberecht
    Czas trwania: 88 min.

    Więcej informacji: http://fdb.pl/film/206004-midnight-son


    Historia 20-letniego Jacoba, mieszkającego w Los Angeles. Jest on bardzo samotny i tęskni za normalnością. Żyje w izolacji ze względu na rzekomą chorobę skóry, która wyklucza przebywanie na słońcu. Świat jego nabiera kolorów, kiedy poznaje barmankę Mary i zakochuje się w niej.


    Tracey Walter, Arlen Escarpeta, Larry Cedar, Juanita Jennings






    Trailer



    Midnight.Son.2011.DVDRiP.AC3-5.1.XviD-AXED

    General

    Complete name: Midnight.Son.2011.DVDRiP.AC3-5.1.XviD-AXED.avi
    Format: AVI
    Format/Info: Audio Video Interleave
    File size: 1.37 GiB
    Duration: 1h 28mn
    Overall bit rate: 2 220 Kbps

    Video

    ID: 0
    Format: MPEG-4 Visual
    Format profile: Advanced Simple@L5
    Format settings, BVOP: 1
    Format settings, QPel: No
    Format settings, GMC: No warppoints
    Format settings, Matrix: Default (H.263)
    Codec ID: XVID
    Codec ID/Hint: XviD
    Duration: 1h 28mn
    Bit rate: 1 764 Kbps
    Width: 720 pixels
    Height: 400 pixels
    Display aspect ratio: 16:9
    Frame rate: 23.976 fps
    Color space: YUV
    Chroma subsampling: 4:2:0
    Bit depth: 8 bits
    Scan type: Progressive
    Compression mode: Lossy
    Bits/(Pixel*Frame): 0.255
    Stream size: 1.09 GiB (79%)
    Writing library: XviD 1.2.1 (UTC 2008-12-04)

    Audio

    ID: 1
    Format: AC-3
    Format/Info: Audio Coding 3
    Mode extension: CM (complete main)
    Codec ID: 2000
    Duration: 1h 28mn
    Bit rate mode: Constant
    Bit rate: 448 Kbps
    Channel(s): 6 channels
    Channel positions: Front: L C R, Side: L R, LFE
    Sampling rate: 48.0 KHz
    Bit depth: 16 bits
    Compression mode: Lossy
    Stream size: 283 MiB (20%)
    Alignment: Aligned on interleaves
    Interleave, duration: 64 ms (1.53 video frames)
    Interleave, preload duration: 192 ms
    Title: VTS_01_1 T80 3_2ch 448Kbps DELAY 0ms



    Nazwa uploadu: Midnight.Son.2011.DVDRiP.AC3-5.1.XviD-AXED.part1
    Nazwa pliku: Midnight.Son.2011.DVDRiP.AC3-5.1.XviD-AXED.part1.rar
    Rozmiar uploadu: 900 MB
    Rozmiar segmentu: 8 MB
    Ilość segmentów: 113
    Liczba mirrorów: 6

    Nazwa uploadu: Midnight.Son.2011.DVDRiP.AC3-5.1.XviD-AXED.part2
    Nazwa pliku: Midnight.Son.2011.DVDRiP.AC3-5.1.XviD-AXED.part2.rar
    Rozmiar uploadu: 650 MB
    Rozmiar segmentu: 8 MB
    Ilość segmentów: 82
    Liczba mirrorów: 6
    Hasło do scalenia: www.mail4us.pl






    Przepraszamy, ale nie możesz zobaczyć tego tematu. Musisz sie Zarejestrować
    albo Zalogować

    Ostatnio edytowane przez jeep ; 04-10-2015 o 02:03

  2.    Sponsored Links




  3. #2
    Retired
     Info : 
    Dołączył
    Feb 2011
    Posty
    2,089
     Podziękowania : 
    Podziękował: 20
    Doceniono: 396 razy w 125 postach
     UFS Stats Uploady : 
     UFS Stats Konta : 
     Total Upload : 
    P2M UP: 2198 GB
     Total CA : 
    Total CA: 890 AC
    bodzio pl jest nieaktywny

    Domyślnie


Informacje o wątku

Użytkownicy przeglądający ten wątek

Aktualnie 1 użytkownik(ów) przegląda ten wątek. (0 zarejestrowany(ch) oraz 1 gości)

Uprawnienia umieszczania postów

  • Nie możesz zakładać nowych tematów
  • Nie możesz pisać wiadomości
  • Nie możesz dodawać załączników
  • Nie możesz edytować swoich postów
  •