Aktualizacje seriali
 



Ogłoszenia
UFS - dotacje
Dotacje SMS
Jak korzystać z forumowej szukajki



Pokaż wyniki od 1 do 2 z 2

Wątek: Chronicle [2012][DVDRip][ENG]

  1. #1
    VIP
     Info : 
    Dołączył
    Mar 2008
    Skąd
    50?53'52" N 20?37'00" E
    Posty
    316
     Podziękowania : 
    Podziękował: 356
    Doceniono: 31 razy w 20 postach
     UFS Stats Uploady : 
    Filmy: 97
    Gry: 30
    Programy: 1
    TV's: 9
    Muzyka: 5
    Porno: 2
     Total Upload : 
    P2M UP: 231.05 GB
    zguto jest nieaktywny

    m4ud Chronicle [2012][DVDRip][ENG]

    (2012)
    Chronicle


    Produkcja: USA, Wielka Brytania
    Gatunek: Thriller, Akcja, Sci-Fi
    Data Premiery: 2012-02-03, 2012-02-02
    Reżyseria: Joshua Trank
    Scenariusz: Max Landis

    Więcej informacji: http://www.filmweb.pl/film/Kronika-2012-613261


    6/10 Filwmweb


    Film fantastyczno-przygodowy. Trzech przyjaciół nieoczekiwanie zyskuje niezwykłe moce, stawiające przed nimi możliwości, o których zwykli ludzie mogą tylko marzyć. Czy są przygotowani, by z nich skorzystać? W rolach głównych: Dane DeHaan (serial TV 'Czysta krew') i Michael Kelly ('Władcy umysłów'). Reżyseria: Josh Trank (serial TV 'Punkt krytyczny').


    Dane DeHaan- Andrew Detmer
    Alex Russell- Matt Garetty
    Michael B. Jordan- Steve Montgomery
    Michael Kelly- Richard Detmer
    Ashley Hinshaw- Casey Letter
    Bo Petersen- Karen Detmer
    Anna Wood- Monica
    Rudi Malcolm- Wayne
    Luke Tyler- Sean
    Crystal-Donna Roberts- Samantha


    Nazwa uploadu: Chronicle.2012..DVDRip.XVID.AC3-TRiNiTY
    Nazwa pliku: Chronicle.2012..DVDRip.XVID.AC3-TRiNiTY.avi
    Rozmiar uploadu: 1226 MB
    Rozmiar segmentu: 8 MB
    Ilo segmentw: 154
    Liczba mirrorw: 6
    Hasło do scalenia: www.mail4us.pl

    NFO:
    NFO:

    General
    Complete name : Chronicle.2012..DVDRip.XVID.AC3-TRiNiTY.avi
    Format : AVI
    Format/Info : Audio Video Interleave
    File size : 1.20 GiB
    Duration : 1h 23mn
    Overall bit rate : 2 043 Kbps
    Writing library : VirtualDub build 30091/release

    Video
    ID : 0
    Format : MPEG-4 Visual
    Format profile : Advanced Simple@L5
    Format settings, BVOP : 2
    Format settings, QPel : No
    Format settings, GMC : No warppoints
    Format settings, Matrix : Default (H.263)
    Codec ID : XVID
    Codec ID/Hint : XviD
    Duration : 1h 23mn
    Bit rate : 1 650 Kbps
    Width : 720 pixels
    Height : 384 pixels
    Display aspect ratio : 1.875
    Frame rate : 25.000 fps
    Color space : YUV
    Chroma subsampling : 4:2:0
    Bit depth : 8 bits
    Scan type : Progressive
    Compression mode : Lossy
    Bits/(Pixel*Frame) : 0.239
    Stream size : 990 MiB (81%)
    Writing library : XviD 1.2.1 (UTC 2008-12-04)

    Audio
    ID : 1
    Format : AC-3
    Format/Info : Audio Coding 3
    Mode extension : CM (complete main)
    Codec ID : 2000
    Duration : 1h 23mn
    Bit rate mode : Constant
    Bit rate : 384 Kbps
    Channel(s) : 2 channels
    Channel positions : Front: L R
    Sampling rate : 48.0 KHz
    Bit depth : 16 bits
    Compression mode : Lossy
    Stream size : 230 MiB (19%)
    Alignment : Aligned on interleaves
    Interleave, duration : 40 ms (1.00 video frame)
    Interleave, preload duration : 512 ms

    SOURCE:
    Chronicle 2012 DVDRip XviD-SPARKS:Thanks.







    Przepraszamy, ale nie możesz zobaczyć tego tematu. Musisz sie Zarejestrować
    albo Zalogować

    Ostatnio edytowane przez jeep ; 04-10-2015 o 00:28

  2.    Sponsored Links




  3. #2
    Retired
     Info : 
    Dołączył
    Jun 2008
    Posty
    120
     Podziękowania : 
    Podziękował: 5
    Doceniono: 27 razy w 9 postach
     UFS Stats Konta : 
    Gmail: 160
    Inne: 117
     Total CA : 
    Total CA: 15190 AC
    DemoN jest nieaktywny

    Domyślnie

    EMERYTURKA

Informacje o wątku

Użytkownicy przeglądający ten wątek

Aktualnie 1 użytkownik(ów) przegląda ten wątek. (0 zarejestrowany(ch) oraz 1 gości)

Podobne wątki

  1. 0.7GB Chronicle [2012][DVDRip][ENG]
    Przez eMPeK w dziale HQ (High Quality - Wysoka Jakość)
    Odpowiedzi: 1
    Ostatni post / autor: 20-07-2012, 16:40
  2. 0.7GB Chronicle [2012][DVDRip][ENG]
    Przez JankieL w dziale HQ (High Quality - Wysoka Jakość)
    Odpowiedzi: 1
    Ostatni post / autor: 05-05-2012, 14:58

Uprawnienia umieszczania postów

  • Nie możesz zakładać nowych tematów
  • Nie możesz pisać wiadomości
  • Nie możesz dodawać załączników
  • Nie możesz edytować swoich postów
  •