Aktualizacje seriali
 



Ogłoszenia
UFS - dotacje
Dotacje SMS
Jak korzystać z forumowej szukajki



Pokaż wyniki od 1 do 2 z 2

Wątek: Rampart [2011][BRRip][ENG]

  1. #1
    VIP
     Info : 
    Dołączył
    Mar 2008
    Skąd
    50?53'52" N 20?37'00" E
    Posty
    316
     Podziękowania : 
    Podziękował: 356
    Doceniono: 31 razy w 20 postach
     UFS Stats Uploady : 
    Filmy: 97
    Gry: 30
    Programy: 1
    TV's: 9
    Muzyka: 5
    Porno: 2
     Total Upload : 
    P2M UP: 231.05 GB
    zguto jest nieaktywny

    m4ud Rampart [2011][BRRip][ENG]

    Brudny glina (2011)
    Rampart


    Produkcja: USA
    Gatunek: Akcja, Kryminał, Dramat, Thriller
    Data Premiery: 2011-09-10 (świat)
    Reżyseria: Oren Moverman
    Scenariusz: James Ellroy (również) (historia), Oren Moverman
    Czas trwania: 108 minut

    Więcej informacji: http://fdb.pl/film/257667-brudny-glina


    7/10 FDB


    Oficer Dave Brown (Woody Harrelson) służy w oddziale Rampart. Niewiele ma wspólnego z godnym zaufania, opanowanym i praworządnym stróżem prawa. Jest mizoginem, egoistą i brutalem. Sam ustala reguły gry i wymierza karę. Nie patyczkuje się z przestępcami - do jego najsłynniejszych akcji należy wyeliminowanie z życia seryjnego 'randkowego' gwałciciela. Dave ma też skomplikowaną sytuację rodzinną. Utrzymuje intymne relacje z dwiema eks-żonami, które jednocześnie są siostrami. Z każdą z nich ma córkę. Oficer nie przepuszcza też okazji do okazjonalnego seksu z innymi kobietami. Życie na krawędzi osiąga krytyczny moment, kiedy Dave zostaje sfilmowany podczas brutalnego pobicia ciemnoskórego kierowcy, z którym miał stłuczkę. Zostaje wrogiem publicznym numer jeden i ma przeciwko sobie wszystkich: media, rodzinę, i swoich szefów - którzy, jak się okazuje, sami mają niejedno do ukrycia. (opis dystrybutora)


    Woody Harrelson - Dave Brown
    Ned Beatty - Hartshorn
    Ben Foster - Gen. Terry
    Anne Heche - Catherine
    Ice Cube - Kyle Timkins
    Cynthia Nixon - Barbara
    Sigourney Weaver - Joan Confrey
    Robert Wisdom - Kapitan


    Nazwa uploadu: Rampart.2011.BRRip.XviD.AC3-BTRG
    Nazwa pliku: Rampart.2011.BRRip.XviD.AC3-BTRG.avi
    Rozmiar uploadu: 708 MB
    Rozmiar segmentu: 8 MB
    Ilość segmentów: 89
    Liczba mirrorów: 6
    Hasło do scalenia: www.mail4us.pl

    NFO:
    NFO:
    Format                                   : AVI
    Format/Info : Audio Video Interleave
    File size : 709 MiB
    Duration : 1h 47mn
    Overall bit rate : 918 Kbps
    Writing application : VirtualDubMod 1.5.10.3 | www.virtualdub-fr.org || (build 2550/release)
    Writing library : VirtualDubMod build 2550/release

    Video
    ID : 0
    Format : MPEG-4 Visual
    Format profile : Advanced Simple@L5
    Format settings, BVOP : 1
    Format settings, QPel : No
    Format settings, GMC : No warppoints
    Format settings, Matrix : Custom
    Codec ID : XVID
    Codec ID/Hint : XviD
    Duration : 1h 47mn
    Bit rate : 781 Kbps
    Width : 672 pixels
    Height : 288 pixels
    Display aspect ratio : 2.35:1
    Frame rate : 23.976 fps
    Color space : YUV
    Chroma subsampling : 4:2:0
    Bit depth : 8 bits
    Scan type : Progressive
    Compression mode : Lossy
    Bits/(Pixel*Frame) : 0.168
    Stream size : 603 MiB (85%)
    Writing library : XviD 1.2.1 (UTC 2008-12-04)

    Audio
    ID : 1
    Format : AC-3
    Format/Info : Audio Coding 3
    Mode extension : CM (complete main)
    Codec ID : 2000
    Duration : 1h 47mn
    Bit rate mode : Constant
    Bit rate : 128 Kbps
    Channel(s) : 6 channels
    Channel positions : Front: L C R, Side: L R, LFE
    Sampling rate : 48.0 KHz
    Bit depth : 16 bits
    Compression mode : Lossy
    Stream size : 98.8 MiB (14%)
    Alignment : Split accross interleaves
    Interleave, duration : 42 ms (1.00 video frame)
    Interleave, preload duration : 500 ms







    Przepraszamy, ale nie możesz zobaczyć tego tematu. Musisz sie Zarejestrować
    albo Zalogować

    Ostatnio edytowane przez jeep ; 04-10-2015 o 00:29

  2.    Sponsored Links




  3. #2
    Retired Awatar Gotto
     Info : 
    Dołączył
    Jun 2008
    Posty
    983
     Podziękowania : 
    Podziękował: 64
    Doceniono: 698 razy w 43 postach
     UFS Stats Uploady : 
    Filmy: 171
    Gry: 45
    Programy: 4
    TV's: 32
    Porno: 10
    Inne: 1
     UFS Stats Konta : 
    Gmail: 20
    Inne: 155
     Total Upload : 
    P2M UP: 526.4 GB
     Total CA : 
    Total CA: 9996 AC
    Gotto jest nieaktywny

    Domyślnie


Informacje o wątku

Użytkownicy przeglądający ten wątek

Aktualnie 1 użytkownik(ów) przegląda ten wątek. (0 zarejestrowany(ch) oraz 1 gości)

Podobne wątki

  1. 0.7GB Rampart [2011][DVDScr][ENG][Napisy PL]
    Przez Stachu w dziale HQ (High Quality - Wysoka Jakość)
    Odpowiedzi: 1
    Ostatni post / autor: 28-02-2012, 06:06
  2. Rampart [2011][DVDRip][ENG]
    Przez SigMon w dziale HQ (High Quality - Wysoka Jakość)
    Odpowiedzi: 4
    Ostatni post / autor: 29-12-2011, 00:58

Uprawnienia umieszczania postów

  • Nie możesz zakładać nowych tematów
  • Nie możesz pisać wiadomości
  • Nie możesz dodawać załączników
  • Nie możesz edytować swoich postów
  •