Aktualizacje seriali
 



Ogłoszenia
UFS - dotacje
Dotacje SMS
Jak korzystać z forumowej szukajki



Pokaż wyniki od 1 do 2 z 2

Wątek: Captain Phillips [2013][WEBRip][x264][AC3][ENG][Subbed CHN]

  1. #1
    Retired Awatar Freddy
     Info : 
    Dołączył
    Nov 2007
    Skąd
    Zasiedmiogórogrodzie
    Posty
    3,806
     Podziękowania : 
    Podziękował: 243
    Doceniono: 591 razy w 246 postach
     UFS Stats Uploady : 
    Filmy: 179
    Gry: 159
    Programy: 5
    TV's: 143
    Muzyka: 26
    Porno: 52
    Inne: 4
    Małe uploady: 3
     UFS Stats Konta : 
    Gmail: 95
    Inne: 410
     Total Upload : 
    P2M UP: 1538.4 GB
     Total CA : 
    Total CA: 9305 AC
    Freddy jest nieaktywny

    Resender Captain Phillips [2013][WEBRip][x264][AC3][ENG][Subbed KO]

    Captain Phillips

    Kapitan Phillips




    Gatunek: Biograficzny, Dramat
    Produkcja: USA
    Premiera: 8 listopada 2013 (Polska) 2013-11-08, 27 września 2013 (świat) 2013-09-27
    Reżyseria: Paul Greengrass
    Scenariusz: Billy Ray
    Ocena: 8,1 / 10
    Muzyka: Henry Jackman
    Zdjęcia: Barry Ackroyd
    Dystrybucja: United International Pictures Sp z o.o.



    "Kapitan Phillips" to wielowarstwowy obraz porwania przez somalijskich piratów amerykańskiego kontenerowca Maersk Alabama, do którego doszło w 2009 roku. Dzięki charakterystycznemu spojrzeniu reżysera Paula Greengrassa, film jest jednocześnie przyspieszającym bicie serca thrillerem i złożonym portretem przedstawiającym skutki globalizacji. "Kapitan Phillips" skupia się na relacji kapitana kontenerowca Richarda Phillipsa (w tej roli dwukrotny zdobywca nagrody Akademii Tom Hanks) i dowódcy piratów Muse'a (Barkhad Abdi), który bierze go jako zakładnika. Kiedy Muse i jego ludzie obierają za cel nieuzbrojony statek Phillipsa, między mężczyznami dochodzi do starcia. W odległości 145 mil od wybrzeża Somalii zostają oni pozostawieni na pastwę sił, nad którymi nie mają kontroli.



    Kapitan Richard Phillips - Tom Hanks
    Muse - Barkhad Abdi
    Bilal - Barkhad Abdirahman
    Najee - Faysal Ahmed
    Elmi - Mahat M. Ali
    Shane Murphy - Michael Chernus
    Andrea Phillips - Catherine Keener
    Mike Perry - David Warshofsky









    General
    Complete name : Captain Phillips 2013 WEBRip x264 AC3-MiLLENiUM.mkv
    Format : Matroska
    Format version : Version 2
    File size : 1.06 GiB
    Duration : 2h 13mn
    Overall bit rate mode : Variable
    Overall bit rate : 1 136 Kbps
    Encoded date : UTC 2013-11-29 15:13:41
    Writing application : mkvmerge v6.5.0 ('Isn't she lovely') built on Oct 20 2013 12:50:05
    Writing library : libebml v1.3.0 + libmatroska v1.4.1

    Video
    ID : 1
    Format : AVC
    Format/Info : Advanced Video Codec
    Format profile : High@L4.1
    Format settings, CABAC : Yes
    Format settings, ReFrames : 3 frames
    Codec ID : V_MPEG4/ISO/AVC
    Duration : 2h 13mn
    Bit rate mode : Variable
    Bit rate : 730 Kbps
    Maximum bit rate : 40.0 Mbps
    Width : 720 pixels
    Height : 384 pixels
    Display aspect ratio : 1.85:1
    Frame rate mode : Constant
    Frame rate : 30.000 fps
    Color space : YUV
    Chroma subsampling : 4:2:0
    Bit depth : 8 bits
    Scan type : Progressive
    Bits/(Pixel*Frame) : 0.088
    Stream size : 698 MiB (64%)
    Writing library : x264 core 140 r2377 1ca7bb9

    Audio
    ID : 2
    Format : AC-3
    Format/Info : Audio Coding 3
    Mode extension : CM (complete main)
    Format settings, Endianness : Big
    Codec ID : A_AC3
    Duration : 2h 13mn
    Bit rate mode : Constant
    Bit rate : 384 Kbps
    Channel(s) : 2 channels
    Channel positions : Front: L R
    Sampling rate : 48.0 KHz
    Bit depth : 16 bits
    Compression mode : Lossy
    Delay relative to video : 7ms
    Stream size : 367 MiB (34%)
    Language : English
    Default : Yes
    Forced : No




    Nazwa pliku: Captain Phillips 2013 WEBRip x264 AC3-MiLLENiUM
    Ilość segmentów na koncie: 78
    Rozmiar segmentu: 15 MB
    Wielkość uploadu: 1130
    Ilość mirrorów: 6
    Hasło: www.ufs.pt

    Masz problem z programem Mail Resender? Zajrzyj do działu Poradniki & FAQ tego programu.






    Przepraszamy, ale nie możesz zobaczyć tego tematu. Musisz sie Zarejestrować
    albo Zalogować







    Przepraszamy, ale nie możesz zobaczyć tego tematu. Musisz sie Zarejestrować
    albo Zalogować



    Nie lubisz pobierać MailResenderem? Przetestuj MailDownloadera.
    Masz problem z programem MailDownloader? Zajrzyj do działu Poradniki & FAQ tego programu.
    Zgłaszanie błędów/sugestii






    Przepraszamy, ale nie możesz zobaczyć tego tematu. Musisz sie Zarejestrować
    albo Zalogować

    Upload zawiera 7% danych naprawczych!
    Jak korzystać z danych naprawczych? Tutaj znajdziesz poradnik!
    Upload wykonany w MR 2.18.012
    Ostatnio edytowane przez jeep ; 28-09-2016 o 12:45



    ----


    ----


    100% moich uploadów spakowanych w rarze zawiera dane naprawcze.
    ----

  2.    Sponsored Links




  3. #2
    "Why so Serious?!" Awatar Azuel
     Info : 
    Dołączył
    Feb 2013
    Skąd
    Rybnik
    Posty
    5,203
     Podziękowania : 
    Podziękował: 1,077
    Doceniono: 3,985 razy w 363 postach
     UFS Stats Uploady : 
    Filmy: 146
    Gry: 54
    Programy: 6
    TV's: 15
    Muzyka: 4
    Porno: 26
    Inne: 7
    Małe uploady: 2
     UFS Stats Konta : 
    Gmail: 60
    Inne: 190
     Total Upload : 
    P2M UP: 1721.8 GB
     Total CA : 
    Total CA: 5095 AC
    Azuel jest nieaktywny

    Domyślnie

    Ostatnio edytowane przez Azuel ; 09-12-2013 o 23:32


    Każdy mój upload w archiwum zawiera dane naprawcze!



    Jeżeli mirrory nie działają lub brakuje segmentów, napisz mi informację z linkiem do tematu > Tutaj <

    Member > Full Member > UFS Uploader > Super Uploader > ELITE Uploader > Moderator > Super Moderator > Retired

Informacje o wątku

Użytkownicy przeglądający ten wątek

Aktualnie 1 użytkownik(ów) przegląda ten wątek. (0 zarejestrowany(ch) oraz 1 gości)

Podobne wątki

  1. 1GB Captain Phillips [2013][WEBRip][ENG]
    Przez JRK w dziale HQ (High Quality - Wysoka Jakość)
    Odpowiedzi: 1
    Ostatni post / autor: 02-12-2013, 20:53

Uprawnienia umieszczania postów

  • Nie możesz zakładać nowych tematów
  • Nie możesz pisać wiadomości
  • Nie możesz dodawać załączników
  • Nie możesz edytować swoich postów
  •