Aktualizacje seriali
 



Ogłoszenia
UFS - dotacje
Dotacje SMS
Jak korzystać z forumowej szukajki



Pokaż wyniki od 1 do 2 z 2

Wątek: Bandslam [2009][DVDRip][ENG]

  1. #1
    Gdzie są pieniądze za las?! Awatar Stachu
     Info : 
    Dołączył
    Oct 2007
    Skąd
    Köln
    Posty
    9,414
     Podziękowania : 
    Podziękował: 243
    Doceniono: 37,509 razy w 1,148 postach
     UFS Stats Uploady : 
    Filmy: 892
    Gry: 597
    Programy: 14
    TV's: 297
    Muzyka: 87
    Porno: 69
    Inne: 66
    Małe uploady: 12
     UFS Stats Konta : 
    Gmail: 205
    Inne: 648
     Total Upload : 
    P2M UP: 8184.15 GB
     Total CA : 
    Total CA: 14861 AC
     Total HTTP Upload : 
    HTTP UP: 0.7 GB
    Stachu jest teraz aktywny

    Resender Bandslam [2009][DVDRip][ENG]

    Bandslam



    Gatunek: Dramat, Komedia, Muzyczny
    Produkcja: USA
    Premiera: 12 sierpnia 2009 (świat) 2009-08-12
    Reżyseria: Todd Graff
    Scenariusz: Todd Graff, Josh A. Cagan
    Ocena: 6,7 / 10
    Zdjęcia: Eric Steelberg



    Nastolatek Will Burton żyje tylko muzyką. Kiedy jego matka dostaje pracę w New Jersey Will rozpoczyna pierwszy rok w nowej szkole. Nie potrafiący się dopasować chłopak nawiązuje przyjaźń z Sam, która tak jak on jest typem samotnika. Oboje są zaskoczeni, kiedy popularna Charlotte werbuje Willa do pomocy w zebraniu zespołu na konkurs kapel „Bandslam”. Były chłopak Charlotty, Ben Wheatly, jest gotowy, by wygrać te zawody ze swoim zespołem Glory Dogs. Po raz pierwszy w życiu Will odkrywa, że jest nie tylko potrzebny, by brać w czymś udział, ale jego rola robi dużą różnicę.



    Will Burton - Gaelan Connell
    Bug - Charlie Saxton
    Basher - Ryan Donowho
    Kim - Lisa Chung
    Sa5m - Vanessa Hudgens
    Scott Donnelly - Will Johnson
    Ben Wheatley - Scott Porter
    Omar - Tim Jo









    Video
    ID : 0
    Format : MPEG-4 Visual
    Format profile : Advanced Simple@L5
    Format settings, BVOP : 2
    Format settings, QPel : No
    Format settings, GMC : No warppoints
    Format settings, Matrix : Default (MPEG)
    Codec ID : XVID
    Codec ID/Hint : XviD
    Duration : 55mn 43s
    Bit rate : 1 298 Kbps
    Width : 640 pixels
    Height : 272 pixels
    Display aspect ratio : 2.35:1
    Frame rate : 25.000 fps
    Color space : YUV
    Chroma subsampling : 4:2:0
    Bit depth : 8 bits
    Scan type : Progressive
    Compression mode : Lossy
    Bits/(Pixel*Frame) : 0.298
    Stream size : 517 MiB (74%)
    Writing library : XviD 1.2.1 (UTC 2008-12-04)

    Audio
    ID : 1
    Format : AC-3
    Format/Info : Audio Coding 3
    Mode extension : CM (complete main)
    Format settings, Endianness : Big
    Codec ID : 2000
    Duration : 55mn 43s
    Bit rate mode : Constant
    Bit rate : 448 Kbps
    Channel(s) : 6 channels
    Channel positions : Front: L C R, Side: L R, LFE
    Sampling rate : 48.0 KHz
    Bit depth : 16 bits
    Compression mode : Lossy
    Stream size : 179 MiB (26%)
    Alignment : Split accross interleaves
    Interleave, duration : 40 ms (1.00 video frame)
    Interleave, preload duration : 500 ms





    CD1
    Nazwa pliku: Bandslam.DVDRip.1
    Ilość segmentów na koncie: 36
    Rozmiar segmentu: 22MB
    Wielkość uploadu: 700MB
    Ilość mirrorów: 10

    CD2
    Nazwa pliku: Bandslam.DVDRip.2
    Ilość segmentów na koncie: 36
    Rozmiar segmentu: 22MB
    Wielkość uploadu: 700MB
    Ilość mirrorów: 10
    Hasło: www.ufs.pl

    Masz problem z programem Mail Resender? Zajrzyj do działu Poradniki & FAQ tego programu.






    Przepraszamy, ale nie możesz zobaczyć tego tematu. Musisz sie Zarejestrować
    albo Zalogować

    Upload wykonany w MR 2.18.012
    Member -> Full Member -> UFS Trial -> UFS Uploader -> UFS Elite -> Moderator -> UFS Elite -> Super Vip -> Elite Kreator -> Elite Uploader -> Super Vip -> Elite Uploader -> Super Vip
    Intel Core i5 2500 3.3GHz
    SilentiumPC
    Asus H61
    Kingston HyperX 16GB DDR3 1600MHz
    Seagate 500GB
    Toshiba 320GB
    Seagate Desktop HDD 2TB
    GoodRam SSD 120GB
    Gigabyte GeForce 1060 6GB XTreme OC
    Nagrywarka Asus
    Thermaltake Modular SE 530W
    Zalman 3 Plus White



  2.    Sponsored Links




  3. #2
    Retired
     Info : 
    Dołączył
    Nov 2008
    Posty
    4,218
     Podziękowania : 
    Podziękował: 377
    Doceniono: 981 razy w 85 postach
     UFS Stats Uploady : 
    Filmy: 77.5
    Gry: 9
    Programy: 4
    TV's: 142
     Total Upload : 
    P2M UP: 812.8 GB
    Diller81 jest nieaktywny

    Domyślnie


    Ostatnio edytowane przez Diller81 ; 26-02-2013 o 18:07

Informacje o wątku

Użytkownicy przeglądający ten wątek

Aktualnie 1 użytkownik(ów) przegląda ten wątek. (0 zarejestrowany(ch) oraz 1 gości)

Podobne wątki

  1. Bandslam [2009][DVDRip][AC3][ENG]
    Przez AdiSan w dziale HQ (High Quality - Wysoka Jakość)
    Odpowiedzi: 2
    Ostatni post / autor: 11-05-2010, 00:42

Uprawnienia umieszczania postów

  • Nie możesz zakładać nowych tematów
  • Nie możesz pisać wiadomości
  • Nie możesz dodawać załączników
  • Nie możesz edytować swoich postów
  •