Aktualizacje seriali
 



Ogłoszenia
UFS - dotacje
Dotacje SMS
Jak korzystać z forumowej szukajki



Pokaż wyniki od 1 do 3 z 3

Wątek: Powrót Zła [2010][Blu-Ray][720p][LEK-PL]

  1. #1
    Gdzie są pieniądze za las?! Awatar Stachu
     Info : 
    Dołączył
    Oct 2007
    Skąd
    Köln
    Posty
    9,414
     Podziękowania : 
    Podziękował: 243
    Doceniono: 37,502 razy w 1,148 postach
     UFS Stats Uploady : 
    Filmy: 892
    Gry: 597
    Programy: 14
    TV's: 297
    Muzyka: 87
    Porno: 69
    Inne: 66
    Małe uploady: 12
     UFS Stats Konta : 
    Gmail: 205
    Inne: 648
     Total Upload : 
    P2M UP: 8184.15 GB
     Total CA : 
    Total CA: 14861 AC
     Total HTTP Upload : 
    HTTP UP: 0.7 GB
    Stachu jest nieaktywny

    mh Powrót Zła [2010][Blu-Ray][720p][LEK-PL]

    Powrót Zła
    Mother's Day




    Gatunek: Dramat, Horror
    Produkcja: Kanada, USA
    Premiera: 23 września 2010 (świat) 2010-09-23
    Reżyseria: Darren Lynn Bousman
    Scenariusz: Charles Kaufman, Scott Milam
    Ocena: 6,3 / 10
    Muzyka: Bobby Johnston
    Zdjęcia: Joseph White



    Bracia Izaak, Addley i Johnny razem z wspólnikiem organizują napad na bank. Jednak nie wszystko idzie tak jak zaplanowali, w rezultacie czego rodzeństwo musi uciekać przed policją. Nie wiedząc gdzie się ukryć, postanawiają schronić się w swoim rodzinnym domu, w którym obecnie mieszka ich matka Natalie. Gdy docierają na miejsce, nie zastają jej tam tylko grupę zupełnie nieznanych im ludzi. Okazuje się, że niedawno ich dom został sprzedany, a nowymi właścicielami jest Beth i Daniel Sohapich, którzy wraz z przyjaciółmi właśnie świętują kupno posiadłości. Nieoczekiwanie małżonkowie i ich goście, stają się zakładnikami trzech braci. Niebawem zjawia się matka Izaaka, Addleya i Johnnyego wraz z ich siostrą Lydią. Wychodzi na jaw, że matka rodzeństwa ma psychopatyczne skłonności i aby uchronić swoje dzieci przed policją, postanawia sama zająć się niechcianymi lokatorami domu.



    Natalie "Matka" Koffin - Rebecca De Mornay
    Addley Koffin - Warren Kole
    Johnny Koffin - Matt O'Leary
    Lydia Koffin - Deborah Ann Woll
    Beth Sohapi - Jaime King
    Annette Langston - Briana Evigan
    Izaak "Ike" Koffin - Patrick John Flueger
    Daniel Sohapi - Frank Grillo









    Video
    ID : 1
    Format : AVC
    Format/Info : Advanced Video Codec
    Format profile : High@L4.1
    Format settings, CABAC : Yes
    Format settings, ReFrames : 5 frames
    Codec ID : V_MPEG4/ISO/AVC
    Duration : 1h 52mn
    Bit rate : 4 070 Kbps
    Width : 1 280 pixels
    Height : 536 pixels
    Display aspect ratio : 2.40:1
    Frame rate mode : Constant
    Frame rate : 23.976 fps
    Color space : YUV
    Chroma subsampling : 4:2:0
    Bit depth : 8 bits
    Scan type : Progressive
    Bits/(Pixel*Frame) : 0.247
    Stream size : 3.09 GiB (65%)
    Title : MOVIE
    Encoding settings : cabac=1 / ref=5 / deblock=1:0:0 / analyse=0x3:0x133 / me=umh / subme=7 / psy=1 / psy_rd=1.00:0.00 / mixed_ref=1 / me_range=16 / chroma_me=1 / trellis=1 / 8x8dct=1 / cqm=0 / deadzone=21,11 / fast_pskip=0 / chroma_qp_offset=-1 / threads=3 / sliced_threads=0 / nr=0 / decimate=1 / interlaced=0 / bluray_compat=0 / constrained_intra=0 / bframes=3 / b_pyramid=2 / b_adapt=1 / b_bias=0 / direct=3 / weightb=1 / open_gop=0 / weightp=2 / keyint=250 / keyint_min=23 / scenecut=40 / intra_refresh=0 / rc_lookahead=40 / rc=2pass / mbtree=1 / bitrate=4070 / ratetol=1.0 / qcomp=0.60 / qpmin=10 / qpmax=51 / qpstep=4 / cplxblur=20.0 / qblur=0.5 / ip_ratio=1.40 / aq=1:1.00
    Language : English
    Default : Yes
    Forced : No

    Audio #1
    ID : 2
    Format : AC-3
    Format/Info : Audio Coding 3
    Mode extension : CM (complete main)
    Format settings, Endianness : Big
    Codec ID : A_AC3
    Duration : 1h 52mn
    Bit rate mode : Constant
    Bit rate : 448 Kbps
    Channel(s) : 6 channels
    Channel positions : Front: L C R, Side: L R, LFE
    Sampling rate : 48.0 KHz
    Bit depth : 16 bits
    Compression mode : Lossy
    Stream size : 360 MiB (7%)
    Title : PL LEKTOR
    Language : Polish
    Default : Yes
    Forced : Yes




    PART1
    Nazwa pliku: Powrot.Zla.Blu-Ray.720p.PL.part1.rar
    Rozmiar Pliku: 3,42 GB
    Rozmiar segmentu: 9,00 MB
    Liczba segmentów: 389
    Liczba mirrorów: 10

    Hasło: www.ufs.pl

    PART2
    Nazwa pliku: Powrot.Zla.Blu-Ray.720p.PL.part2.rar
    Rozmiar Pliku: 1,72 GB
    Rozmiar segmentu: 9,00 MB
    Liczba segmentów: 196
    Liczba mirrorów: 10

    Hasło: www.ufs.pl

    Masz problem z programem MoorHunt? Zajrzyj do działu Poradniki & FAQ tego programu.
    Zalecamy pobieranie za pomocą MailShare







    Przepraszamy, ale nie możesz zobaczyć tego tematu. Musisz sie Zarejestrować
    albo Zalogować

    Upload zawiera 10% danych naprawczych!
    Jak korzystać z danych naprawczych? Tutaj znajdziesz poradnik!
    Upload wykonany w MH 0.6.7.2
    Ostatnio edytowane przez jeep ; 08-11-2016 o 16:04
    Member -> Full Member -> UFS Trial -> UFS Uploader -> UFS Elite -> Moderator -> UFS Elite -> Super Vip -> Elite Kreator -> Elite Uploader -> Super Vip -> Elite Uploader -> Super Vip
    Intel Core i5 2500 3.3GHz
    SilentiumPC
    Asus H61
    Kingston HyperX 16GB DDR3 1600MHz
    Seagate 500GB
    Toshiba 320GB
    Seagate Desktop HDD 2TB
    GoodRam SSD 120GB
    Gigabyte GeForce 1060 6GB XTreme OC
    Nagrywarka Asus
    Thermaltake Modular SE 530W
    Zalman 3 Plus White



  2.    Sponsored Links




  3. #2
    Impeccable Awatar Kingpin
     Info : 
    Dołączył
    May 2008
    Skąd
    Paris XVII arr
    Posty
    5,329
     Podziękowania : 
    Podziękował: 1,492
    Doceniono: 60,446 razy w 526 postach
     UFS Stats Uploady : 
    Filmy: 607
    Gry: 211
    Programy: 19
    TV's: 22
    Muzyka: 2
    Porno: 12
    Inne: 2
     UFS Stats Konta : 
    Gmail: 20
    Inne: 75
     Total Upload : 
    P2M UP: 3523.05 GB
     Total CA : 
    Total CA: 2080 AC
    Kingpin jest nieaktywny

    Domyślnie

    Ostatnio edytowane przez Kingpin ; 08-02-2013 o 22:24


    מֶלֶך


  4. #3
    Full Member Awatar maniek0_00
     Info : 
    Dołączył
    Dec 2007
    Posty
    202
     Podziękowania : 
    Podziękował: 167
    Doceniono: 0 razy w 0 postach
    maniek0_00 jest nieaktywny

    Domyślnie

    1 part ma błąd, dane naprawcze chyba nie istnieją, bo próba ich użycia kończy sie zawieszeniem rara... pobrałem dwa razy i dwa razy tak samo ...

Informacje o wątku

Użytkownicy przeglądający ten wątek

Aktualnie 1 użytkownik(ów) przegląda ten wątek. (0 zarejestrowany(ch) oraz 1 gości)

Uprawnienia umieszczania postów

  • Nie możesz zakładać nowych tematów
  • Nie możesz pisać wiadomości
  • Nie możesz dodawać załączników
  • Nie możesz edytować swoich postów
  •