Aktualizacje seriali
 



Ogłoszenia
UFS - dotacje
Dotacje SMS
Jak korzystać z forumowej szukajki



Pokaż wyniki od 1 do 2 z 2

Wątek: Predator 2 [1990][Blu-Ray][1080p][LEK-PL][Napisy PL]

  1. #1
    Gdzie są pieniądze za las?! Awatar Stachu
     Info : 
    Dołączył
    Oct 2007
    Skąd
    Köln
    Posty
    9,414
     Podziękowania : 
    Podziękował: 243
    Doceniono: 37,489 razy w 1,148 postach
     UFS Stats Uploady : 
    Filmy: 892
    Gry: 597
    Programy: 14
    TV's: 297
    Muzyka: 87
    Porno: 69
    Inne: 66
    Małe uploady: 12
     UFS Stats Konta : 
    Gmail: 205
    Inne: 648
     Total Upload : 
    P2M UP: 8184.15 GB
     Total CA : 
    Total CA: 14861 AC
     Total HTTP Upload : 
    HTTP UP: 0.7 GB
    Stachu jest nieaktywny

    mh Predator 2 [1990][Blu-Ray][1080p][LEK-PL][Napisy PL]

    Predator 2



    Gatunek: Akcja, Sci-Fi
    Produkcja: USA
    Premiera: 19 listopada 1990 (świat) 1990-11-19
    Reżyseria: Stephen Hopkins
    Scenariusz: Jim Thomas, John Thomas
    Ocena: 6,7 / 10
    Muzyka: Alan Silvestri
    Zdjęcia: Peter Levy



    Mija dziesięć lat od wydarzeń w dżungli, gdzie obca istota wymordowała niemal cały oddział komandosów. Tymczasem w Los Angeles panuje fala upałów, a na ulicach toczą się niebezpieczne wojny gangów. Jednak do miasta trafia coś znacznie groźniejszego, coś co lubi upał, a polowanie na ludzi sprawia mu przyjemność. Tą istotą jest nieuchwytny drapieżca - Predator. Grupa funkcjonariuszy FBI staje naprzeciw obcemu przybyszowi, mimo że ten ma nad nimi sporą przewagę...



    Porucznik Mike Harrigan - Danny Glover
    Peter Keyes - Gary Busey
    Danny Archuleta - Rubén Blades
    Leona Cantrell - Maria Conchita Alonso
    Jerry Lambert - Bill Paxton
    Predator - Kevin Peter Hall
    Kapitan Phil Heinemann - Robert Davi
    Kapitan B. Pilgrim - Kent McCord









    Video
    ID : 1
    Format : AVC
    Format/Info : Advanced Video Codec
    Format profile : High@L4.1
    Format settings, CABAC : Yes
    Format settings, ReFrames : 4 frames
    Muxing mode : Header stripping
    Codec ID : V_MPEG4/ISO/AVC
    Duration : 1h 48mn
    Bit rate : 12.9 Mbps
    Width : 1 920 pixels
    Height : 1 040 pixels
    Display aspect ratio : 1.85:1
    Frame rate mode : Constant
    Frame rate : 23.976 fps
    Color space : YUV
    Chroma subsampling : 4:2:0
    Bit depth : 8 bits
    Scan type : Progressive
    Bits/(Pixel*Frame) : 0.270
    Stream size : 9.52 GiB (85%)
    Encoding settings : cabac=1 / ref=4 / deblock=1:-3:-3 / analyse=0x3:0x113 / me=umh / subme=10 / psy=1 / psy_rd=1.00:0.00 / mixed_ref=0 / me_range=64 / chroma_me=1 / trellis=2 / 8x8dct=1 / cqm=0 / deadzone=21,11 / fast_pskip=0 / chroma_qp_offset=-4 / threads=12 / sliced_threads=0 / nr=0 / decimate=0 / interlaced=0 / constrained_intra=0 / bframes=8 / b_pyramid=2 / b_adapt=2 / b_bias=0 / direct=3 / weightb=1 / open_gop=0 / weightp=2 / keyint=250 / keyint_min=23 / scenecut=40 / intra_refresh=0 / rc_lookahead=50 / rc=2pass / mbtree=1 / bitrate=12924 / ratetol=1.0 / qcomp=0.60 / qpmin=10 / qpmax=51 / qpstep=4 / cplxblur=20.0 / qblur=0.5 / vbv_maxrate=38000 / vbv_bufsize=30000 / ip_ratio=1.40 / aq=1:1.00 / nal_hrd=none
    Language : Polish
    Default : Yes
    Forced : No

    Audio #1
    ID : 2
    Format : DTS
    Format/Info : Digital Theater Systems
    Mode : 16
    Format settings, Endianness : Big
    Muxing mode : Header stripping
    Codec ID : A_DTS
    Duration : 1h 48mn
    Bit rate mode : Constant
    Bit rate : 1 510 Kbps
    Channel(s) : 6 channels
    Channel positions : Front: L C R, Side: L R, LFE
    Sampling rate : 48.0 KHz
    Bit depth : 24 bits
    Compression mode : Lossy
    Stream size : 1.14 GiB (10%)
    Title : English 5.1 DTS
    Language : English
    Default : No
    Forced : No

    Audio #2
    ID : 3
    Format : AC-3
    Format/Info : Audio Coding 3
    Mode extension : CM (complete main)
    Format settings, Endianness : Big
    Muxing mode : Header stripping
    Codec ID : A_AC3
    Duration : 1h 48mn
    Bit rate mode : Constant
    Bit rate : 448 Kbps
    Channel(s) : 6 channels
    Channel positions : Front: L C R, Side: L R, LFE
    Sampling rate : 48.0 KHz
    Bit depth : 16 bits
    Compression mode : Lossy
    Stream size : 346 MiB (3%)
    Title : Polish 5.1 AC3
    Language : Polish
    Default : Yes
    Forced : No

    Text #1
    ID : 4
    Format : UTF-8
    Codec ID : S_TEXT/UTF8
    Codec ID/Info : UTF-8 Plain Text
    Language : English
    Default : No
    Forced : No

    Text #2
    ID : 5
    Format : UTF-8
    Codec ID : S_TEXT/UTF8
    Codec ID/Info : UTF-8 Plain Text
    Language : Polish
    Default : No
    Forced : No




    PART1-3
    Nazwa pliku: Predator2.Blu-Ray.1080p.PL.partx.rar
    Rozmiar Pliku: 3,42 GB
    Rozmiar segmentu: 9,00 MB
    Liczba segmentów: 389
    Liczba mirrorów: 10

    Hasło: www.ufs.pl

    PART4
    Nazwa pliku: Predator2.Blu-Ray.1080p.PL.part4.rar
    Rozmiar Pliku: 1,93 GB
    Rozmiar segmentu: 9,00 MB
    Liczba segmentów: 220
    Liczba mirrorów: 10

    Hasło: www.ufs.p

    Masz problem z programem MoorHunt? Zajrzyj do działu Poradniki & FAQ tego programu.
    Zalecamy pobieranie za pomocą MailShare







    Przepraszamy, ale nie możesz zobaczyć tego tematu. Musisz sie Zarejestrować
    albo Zalogować

    Upload zawiera 10% danych naprawczych!
    Jak korzystać z danych naprawczych? Tutaj znajdziesz poradnik!
    Upload wykonany w MH 0.6.7.2
    Ostatnio edytowane przez jeep ; 08-11-2016 o 16:25
    Member -> Full Member -> UFS Trial -> UFS Uploader -> UFS Elite -> Moderator -> UFS Elite -> Super Vip -> Elite Kreator -> Elite Uploader -> Super Vip -> Elite Uploader -> Super Vip
    Intel Core i5 2500 3.3GHz
    SilentiumPC
    Asus H61
    Kingston HyperX 16GB DDR3 1600MHz
    Seagate 500GB
    Toshiba 320GB
    Seagate Desktop HDD 2TB
    GoodRam SSD 120GB
    Gigabyte GeForce 1060 6GB XTreme OC
    Nagrywarka Asus
    Thermaltake Modular SE 530W
    Zalman 3 Plus White



  2. Liczba osób które doceniły autora: 1


  3.    Sponsored Links




  4. #2
    Retired
     Info : 
    Dołączył
    Nov 2008
    Posty
    4,218
     Podziękowania : 
    Podziękował: 377
    Doceniono: 981 razy w 85 postach
     UFS Stats Uploady : 
    Filmy: 77.5
    Gry: 9
    Programy: 4
    TV's: 142
     Total Upload : 
    P2M UP: 812.8 GB
    Diller81 jest nieaktywny

    Domyślnie

    Ostatnio edytowane przez Diller81 ; 05-02-2013 o 14:45

Informacje o wątku

Użytkownicy przeglądający ten wątek

Aktualnie 1 użytkownik(ów) przegląda ten wątek. (0 zarejestrowany(ch) oraz 1 gości)

Uprawnienia umieszczania postów

  • Nie możesz zakładać nowych tematów
  • Nie możesz pisać wiadomości
  • Nie możesz dodawać załączników
  • Nie możesz edytować swoich postów
  •