Aktualizacje seriali
 



Ogłoszenia
UFS - dotacje
Dotacje SMS
Jak korzystać z forumowej szukajki



Pokaż wyniki od 1 do 2 z 2

Wątek: Ruby Sparks [2012][DVD-R][ENG]

  1. #1
    Gdzie są pieniądze za las?! Awatar Stachu
     Info : 
    Dołączył
    Oct 2007
    Skąd
    Köln
    Posty
    9,414
     Podziękowania : 
    Podziękował: 243
    Doceniono: 37,497 razy w 1,148 postach
     UFS Stats Uploady : 
    Filmy: 892
    Gry: 597
    Programy: 14
    TV's: 297
    Muzyka: 87
    Porno: 69
    Inne: 66
    Małe uploady: 12
     UFS Stats Konta : 
    Gmail: 205
    Inne: 648
     Total Upload : 
    P2M UP: 8184.15 GB
     Total CA : 
    Total CA: 14861 AC
     Total HTTP Upload : 
    HTTP UP: 0.7 GB
    Stachu jest nieaktywny

    mh Ruby Sparks [2012][DVD-R][ENG]

    Ruby Sparks



    Gatunek: Fantasy, Komedia rom.
    Produkcja: USA
    Premiera: 25 lipca 2012 (świat) 2012-07-25
    Reżyseria: Jonathan Dayton, Valerie Faris
    Scenariusz: Zoe Kazan
    Ocena: 6,7 / 10
    Muzyka: Nick Urata
    Zdjęcia: Matthew Libatique
    Dystrybucja: Imperial - Cinepix



    Surrealistyczna komedia romantyczna" w reżyserii Jonathana Daytona i Valerie Faris, twórców słynnej "Małej Miss". Młody, obiecujący pisarz zmaga się z blokadą twórczą i niepowodzeniami w życiu osobistym. Pewnego dnia odnosi sukces, powołując do życia bohaterkę literacką o imieniu Ruby. Tydzień później przekonuje się, że zaczęła ona żyć własnym życiem, wywracając jego świat do góry nogami.



    Calvin Weir-Fields - Paul Dano
    Ruby - Zoe Kazan
    Harry - Chris Messina
    Gertrude - Annette Bening
    Mort - Antonio Banderas
    Cyrus Modi - Aasif Mandvi
    Langdon Tharp - Steve Coogan
    Susie - Toni Trucks









    Video
    ID : 224 (0xE0)
    Format : MPEG Video
    Format version : Version 2
    Format profile : Main@Main
    Format settings, BVOP : Yes
    Format settings, Matrix : Custom
    Format settings, GOP : M=3, N=12
    Duration : 24mn 16s
    Bit rate mode : Variable
    Bit rate : 5 331 Kbps
    Maximum bit rate : 9 800 Kbps
    Width : 720 pixels
    Height : 576 pixels
    Display aspect ratio : 16:9
    Frame rate : 25.000 fps
    Standard : PAL
    Color space : YUV
    Chroma subsampling : 4:2:0
    Bit depth : 8 bits
    Scan type : Interlaced
    Scan order : Top Field First
    Compression mode : Lossy
    Bits/(Pixel*Frame) : 0.514
    Stream size : 926 MiB (90%)

    Audio
    ID : 189 (0xBD)-128 (0x80)
    Format : AC-3
    Format/Info : Audio Coding 3
    Mode extension : CM (complete main)
    Format settings, Endianness : Big
    Muxing mode : DVD-Video
    Duration : 24mn 16s
    Bit rate mode : Constant
    Bit rate : 448 Kbps
    Channel(s) : 6 channels
    Channel positions : Front: L C R, Side: L R, LFE
    Sampling rate : 48.0 KHz
    Bit depth : 16 bits
    Compression mode : Lossy
    Stream size : 77.8 MiB (8%)

    Text
    ID : 189 (0xBD)-32 (0x20)
    Format : RLE
    Format/Info : Run-length encoding
    Muxing mode : DVD-Video




    PART1
    Nazwa pliku: Ruby Sparks (2012) DVD-R.part1.rar
    Rozmiar Pliku: 3,42 GB
    Rozmiar segmentu: 9,00 MB
    Liczba segmentów: 389
    Liczba mirrorów: 10

    Hasło: www.ufs.pl

    PART2
    NNazwa pliku: Ruby Sparks (2012) DVD-R.part2.rar
    Rozmiar Pliku: 1,33 GB
    Rozmiar segmentu: 9,00 MB
    Liczba segmentów: 152
    Liczba mirrorów: 10

    Hasło: www.ufs.pl

    Masz problem z programem MoorHunt? Zajrzyj do działu Poradniki & FAQ tego programu.
    Zalecamy pobieranie za pomocą MailShare







    Przepraszamy, ale nie możesz zobaczyć tego tematu. Musisz sie Zarejestrować
    albo Zalogować

    Upload zawiera 10% danych naprawczych!
    Jak korzystać z danych naprawczych? Tutaj znajdziesz poradnik!
    Upload wykonany w MH 0.6.7.2
    Ostatnio edytowane przez Szatan ; 25-07-2013 o 19:20
    Member -> Full Member -> UFS Trial -> UFS Uploader -> UFS Elite -> Moderator -> UFS Elite -> Super Vip -> Elite Kreator -> Elite Uploader -> Super Vip -> Elite Uploader -> Super Vip
    Intel Core i5 2500 3.3GHz
    SilentiumPC
    Asus H61
    Kingston HyperX 16GB DDR3 1600MHz
    Seagate 500GB
    Toshiba 320GB
    Seagate Desktop HDD 2TB
    GoodRam SSD 120GB
    Gigabyte GeForce 1060 6GB XTreme OC
    Nagrywarka Asus
    Thermaltake Modular SE 530W
    Zalman 3 Plus White



  2.    Sponsored Links




  3. #2
    Impeccable Awatar Kingpin
     Info : 
    Dołączył
    May 2008
    Skąd
    Paris XVII arr
    Posty
    5,329
     Podziękowania : 
    Podziękował: 1,492
    Doceniono: 60,443 razy w 526 postach
     UFS Stats Uploady : 
    Filmy: 607
    Gry: 211
    Programy: 19
    TV's: 22
    Muzyka: 2
    Porno: 12
    Inne: 2
     UFS Stats Konta : 
    Gmail: 20
    Inne: 75
     Total Upload : 
    P2M UP: 3523.05 GB
     Total CA : 
    Total CA: 2080 AC
    Kingpin jest nieaktywny

    Domyślnie

    Ostatnio edytowane przez Kingpin ; 29-01-2013 o 22:48


    מֶלֶך


Informacje o wątku

Użytkownicy przeglądający ten wątek

Aktualnie 1 użytkownik(ów) przegląda ten wątek. (0 zarejestrowany(ch) oraz 1 gości)

Uprawnienia umieszczania postów

  • Nie możesz zakładać nowych tematów
  • Nie możesz pisać wiadomości
  • Nie możesz dodawać załączników
  • Nie możesz edytować swoich postów
  •