Aktualizacje seriali
 



Ogłoszenia
UFS - dotacje
Dotacje SMS
Jak korzystać z forumowej szukajki



Pokaż wyniki od 1 do 2 z 2

Wątek: Wieczór Panieński [2012][DVD-R][LEK-PL][Napisy PL]

  1. #1
    Gdzie są pieniądze za las?! Awatar Stachu
     Info : 
    Dołączył
    Oct 2007
    Skąd
    Köln
    Posty
    9,414
     Podziękowania : 
    Podziękował: 243
    Doceniono: 37,494 razy w 1,148 postach
     UFS Stats Uploady : 
    Filmy: 892
    Gry: 597
    Programy: 14
    TV's: 297
    Muzyka: 87
    Porno: 69
    Inne: 66
    Małe uploady: 12
     UFS Stats Konta : 
    Gmail: 205
    Inne: 648
     Total Upload : 
    P2M UP: 8184.15 GB
     Total CA : 
    Total CA: 14861 AC
     Total HTTP Upload : 
    HTTP UP: 0.7 GB
    Stachu jest nieaktywny

    mh Wieczór Panieński [2012][DVD-R][LEK-PL][Napisy PL]

    Wieczór panieński
    Bachelorette




    Produkcja: USA
    Data Premiery: 2012-09-14 (kino), 2012-01-23 (świat)
    Reżyseria: Leslye Headland
    Scenariusz: Leslye Headland
    Czas trwania: 87 minut
    Dystrybucja: Hagi
    Gatunek: Komedia
    Ocena: 5.9



    Oparta na kultowej broadwayowskiej sztuce Leslye Headland, amerykańska komedia Wieczór panieński, to zwariowany mix Seksu w wielkim mieście i przebojowych, nagradzanych Oscarami Druhen. Rozgrywająca się współcześnie w Nowym Jorku historia czterech licealnych przyjaciółek, które spotykają się po latach na ślubie jednej z nich. Przed ślubem jednak czeka je... wieczór panieński, w czasie którego szalona zabawa wymyka się spod kontroli. "Wieczór..." w stu procentach wpisuje się w najpopularniejszy obecnie na świecie nurt komedii genderowej, wykorzystującej stereotypowe podejście do spraw płci. Największymi hitami gatunku były: wspomniany już Seks w wielkim mieście, Dziennik Bridget Jones czy Lejdis. (opis dystrybutora)



    Gena - Lizzy Caplan
    Katie - Isla Fisher
    Regan - Kirsten Dunst
    Trevor - James Marsden
    Clyde - Adam Scott
    Becky - Rebel Wilson
    Dale - Hayes MacArthur
    Stefanie - Ella Rae Peck









    Video
    ID : 224 (0xE0)
    Format : MPEG Video
    Format version : Version 2
    Format profile : Main@Main
    Format settings, BVOP : Yes
    Format settings, Matrix : Default
    Format settings, GOP : M=3, N=12
    Duration : 20mn 50s
    Bit rate mode : Variable
    Bit rate : 5 835 Kbps
    Maximum bit rate : 7 419 Kbps
    Width : 720 pixels
    Height : 576 pixels
    Display aspect ratio : 16:9
    Frame rate : 25.000 fps
    Standard : PAL
    Color space : YUV
    Chroma subsampling : 4:2:0
    Bit depth : 8 bits
    Scan type : Progressive
    Compression mode : Lossy
    Bits/(Pixel*Frame) : 0.563
    Stream size : 870 MiB (85%)

    Audio #1
    ID : 189 (0xBD)-128 (0x80)
    Format : AC-3
    Format/Info : Audio Coding 3
    Mode extension : CM (complete main)
    Format settings, Endianness : Big
    Muxing mode : DVD-Video
    Duration : 20mn 50s
    Bit rate mode : Constant
    Bit rate : 448 Kbps
    Channel(s) : 6 channels
    Channel positions : Front: L C R, Side: L R, LFE
    Sampling rate : 48.0 KHz
    Bit depth : 16 bits
    Compression mode : Lossy
    Delay relative to video : 14ms
    Stream size : 66.8 MiB (7%)

    Audio #2
    ID : 189 (0xBD)-129 (0x81)
    Format : AC-3
    Format/Info : Audio Coding 3
    Mode extension : CM (complete main)
    Format settings, Endianness : Big
    Muxing mode : DVD-Video
    Duration : 20mn 50s
    Bit rate mode : Constant
    Bit rate : 448 Kbps
    Channel(s) : 6 channels
    Channel positions : Front: L C R, Side: L R, LFE
    Sampling rate : 48.0 KHz
    Bit depth : 16 bits
    Compression mode : Lossy
    Delay relative to video : 14ms
    Stream size : 66.8 MiB (7%)

    Text
    ID : 189 (0xBD)-32 (0x20)
    Format : RLE
    Format/Info : Run-length encoding
    Muxing mode : DVD-Video




    PART1
    Nazwa pliku: Wieczor panienski Bachelorette (2012).part1.rar
    Rozmiar Pliku: 3,42 GB
    Rozmiar segmentu: 9,00 MB
    Liczba segmentów: 389
    Liczba mirrorów: 10


    PART2
    Nazwa pliku: Wieczor panienski Bachelorette (2012).part2.rar
    Rozmiar Pliku: 1,10 GB
    Rozmiar segmentu: 9,00 MB
    Liczba segmentów: 126
    Liczba mirrorów: 10

    Hasło: www.ufs.pl

    Masz problem z programem MoorHunt? Zajrzyj do działu Poradniki & FAQ tego programu.
    Zalecamy pobieranie za pomocą MailShare







    Przepraszamy, ale nie możesz zobaczyć tego tematu. Musisz sie Zarejestrować
    albo Zalogować

    Upload zawiera 10% danych naprawczych!
    Jak korzystać z danych naprawczych? Tutaj znajdziesz poradnik!
    Upload wykonany w MH 0.6.7.2
    Ostatnio edytowane przez Szatan ; 25-07-2013 o 20:53
    Member -> Full Member -> UFS Trial -> UFS Uploader -> UFS Elite -> Moderator -> UFS Elite -> Super Vip -> Elite Kreator -> Elite Uploader -> Super Vip -> Elite Uploader -> Super Vip
    Intel Core i5 2500 3.3GHz
    SilentiumPC
    Asus H61
    Kingston HyperX 16GB DDR3 1600MHz
    Seagate 500GB
    Toshiba 320GB
    Seagate Desktop HDD 2TB
    GoodRam SSD 120GB
    Gigabyte GeForce 1060 6GB XTreme OC
    Nagrywarka Asus
    Thermaltake Modular SE 530W
    Zalman 3 Plus White



  2. Liczba osób które doceniły autora: 2


  3.    Sponsored Links




  4. #2
    Retired
     Info : 
    Dołączył
    Nov 2008
    Posty
    4,218
     Podziękowania : 
    Podziękował: 377
    Doceniono: 981 razy w 85 postach
     UFS Stats Uploady : 
    Filmy: 77.5
    Gry: 9
    Programy: 4
    TV's: 142
     Total Upload : 
    P2M UP: 812.8 GB
    Diller81 jest nieaktywny

    Domyślnie

    Ostatnio edytowane przez Diller81 ; 29-01-2013 o 09:42

Informacje o wątku

Użytkownicy przeglądający ten wątek

Aktualnie 1 użytkownik(ów) przegląda ten wątek. (0 zarejestrowany(ch) oraz 1 gości)

Podobne wątki

  1. 0.7GB Wieczór panieński [2012][DVDRip][ENG]
    Przez Jarrett w dziale HQ (High Quality - Wysoka Jakość)
    Odpowiedzi: 1
    Ostatni post / autor: 15-09-2012, 22:26

Uprawnienia umieszczania postów

  • Nie możesz zakładać nowych tematów
  • Nie możesz pisać wiadomości
  • Nie możesz dodawać załączników
  • Nie możesz edytować swoich postów
  •