Aktualizacje seriali
 



Ogłoszenia
UFS - dotacje
Dotacje SMS
Jak korzystać z forumowej szukajki



Pokaż wyniki od 1 do 2 z 2

Wątek: Forbrydelsen [2007][Sezon 1][DVBRip][LEK-PL]

  1. #1
    Gdzie są pieniądze za las?! Awatar Stachu
     Info : 
    Dołączył
    Oct 2007
    Skąd
    Köln
    Posty
    9,414
     Podziękowania : 
    Podziękował: 243
    Doceniono: 37,507 razy w 1,148 postach
     UFS Stats Uploady : 
    Filmy: 892
    Gry: 597
    Programy: 14
    TV's: 297
    Muzyka: 87
    Porno: 69
    Inne: 66
    Małe uploady: 12
     UFS Stats Konta : 
    Gmail: 205
    Inne: 648
     Total Upload : 
    P2M UP: 8184.15 GB
     Total CA : 
    Total CA: 14861 AC
     Total HTTP Upload : 
    HTTP UP: 0.7 GB
    Stachu jest nieaktywny

    mh Forbrydelsen [2007][Sezon 1][DVBRip][LEK-PL]

    Forbrydelsen



    Produkcja: Dania | Norwegia | Szwecja
    Data Premiery: 2011-12-07 (kino), 2007-01-07 (świat)
    Reżyseria: Birger Larsen, Henrik Ruben Genz
    Scenariusz: Torleif Hoppe, Sřren Sveistrup
    Czas trwania: odc.: 43 minut
    Dystrybucja:
    Gatunek: Kryminał | Dramat
    Ocena: 8.0



    Detektyw Sara Lund odbywa swoje ostatnie dni służby w kopenhaskiej policji. Ma przenieść się do Szwecji wraz ze swym narzeczonym i zacząć pracować dla tamtejszego wymiaru sprawiedliwości. Jednak jej plany zmieniają się, gdy znika 19-letnia Nanna Birk Larsen. Okazuje się, że dziewczyna została brutalnie zgwałcona i zamordowana. Sara wraz ze swym partnerem Janem Meyerem zaczynają prowadzić śledztwo w tej sprawie. Okazuje się, że złapanie inteligentnego i niebezpiecznego mordercy nie będzie łatwe...



    Sarah Lund (8 odcinków, 2007) - Sofie Grĺbřl
    Troels Hartmann (8 odcinków, 2007) - Lars Mikkelsen
    Theis Birk Larsen (8 odcinków, 2007) - Bjarne Henriksen
    Pernille Birk Larsen (8 odcinków, 2007) - Ann Eleonora Jřrgensen
    Jan Meyer (8 odcinków, 2007) - Sřren Malling
    Rie Skovgaard (8 odcinków, 2007) - Marie Askehave
    Vagn (8 odcinków, 2007) - Nicolaj Kopernikus
    Rama (7 odcinków, 2007) - Farshad Kholghi









    Przykładowy odcinek
    Video
    ID : 0
    Format : MPEG-4 Visual
    Format profile : Advanced Simple@L5
    Format settings, BVOP : 2
    Format settings, QPel : No
    Format settings, GMC : No warppoints
    Format settings, Matrix : Default (H.263)
    Codec ID : XVID
    Codec ID/Hint : XviD
    Duration : 53mn 59s
    Bit rate : 804 Kbps
    Width : 608 pixels
    Height : 336 pixels
    Display aspect ratio : 16:9
    Frame rate : 25.000 fps
    Color space : YUV
    Chroma subsampling : 4:2:0
    Bit depth : 8 bits
    Scan type : Progressive
    Compression mode : Lossy
    Bits/(Pixel*Frame) : 0.158
    Stream size : 311 MiB (87%)
    Writing library : XviD 64

    Audio
    ID : 1
    Format : MPEG Audio
    Format version : Version 1
    Format profile : Layer 3
    Mode : Joint stereo
    Mode extension : MS Stereo
    Codec ID : 55
    Codec ID/Hint : MP3
    Duration : 53mn 59s
    Bit rate mode : Constant
    Bit rate : 112 Kbps
    Channel(s) : 2 channels
    Sampling rate : 44.1 KHz
    Compression mode : Lossy
    Stream size : 43.3 MiB (12%)
    Alignment : Split accross interleaves
    Interleave, duration : 40 ms (1.00 video frame)
    Interleave, preload duration : 500 ms




    ~Odcinek
    Nazwa pliku: Forbrydelsen.S01Exx.DVBRip-PL.avi
    Data wygenerowania HashCode: 2013-01-27 12:19:29
    Rozmiar Pliku: ~357,68 MB
    CRC32: 06B89B2F
    Rozmiar segmentu: 9,00 MB
    Liczba segmentów: 40
    Liczba mirrorów: 8

    Hasło: www.ufs.pl

    Masz problem z programem MoorHunt? Zajrzyj do działu Poradniki & FAQ tego programu.
    Zalecamy pobieranie za pomocą MailShare







    Przepraszamy, ale nie możesz zobaczyć tego tematu. Musisz sie Zarejestrować
    albo Zalogować

    Upload wykonany w MH 0.6.7.2

    Kolejne odcinki dodam jak zassam i upne
    Member -> Full Member -> UFS Trial -> UFS Uploader -> UFS Elite -> Moderator -> UFS Elite -> Super Vip -> Elite Kreator -> Elite Uploader -> Super Vip -> Elite Uploader -> Super Vip
    Intel Core i5 2500 3.3GHz
    SilentiumPC
    Asus H61
    Kingston HyperX 16GB DDR3 1600MHz
    Seagate 500GB
    Toshiba 320GB
    Seagate Desktop HDD 2TB
    GoodRam SSD 120GB
    Gigabyte GeForce 1060 6GB XTreme OC
    Nagrywarka Asus
    Thermaltake Modular SE 530W
    Zalman 3 Plus White



  2. Liczba osób które doceniły autora: 3


  3.    Sponsored Links




  4. #2
    Retired
     Info : 
    Dołączył
    Nov 2008
    Posty
    4,218
     Podziękowania : 
    Podziękował: 377
    Doceniono: 981 razy w 85 postach
     UFS Stats Uploady : 
    Filmy: 77.5
    Gry: 9
    Programy: 4
    TV's: 142
     Total Upload : 
    P2M UP: 812.8 GB
    Diller81 jest nieaktywny

    Domyślnie


Informacje o wątku

Użytkownicy przeglądający ten wątek

Aktualnie 1 użytkownik(ów) przegląda ten wątek. (0 zarejestrowany(ch) oraz 1 gości)

Uprawnienia umieszczania postów

  • Nie możesz zakładać nowych tematów
  • Nie możesz pisać wiadomości
  • Nie możesz dodawać załączników
  • Nie możesz edytować swoich postów
  •