Aktualizacje seriali
 



Ogłoszenia
UFS - dotacje
Dotacje SMS
Jak korzystać z forumowej szukajki



Pokaż wyniki od 1 do 2 z 2

Wątek: Intouchables [2011][Blu-Ray][1080p][FRA]

  1. #1
    Gdzie są pieniądze za las?! Awatar Stachu
     Info : 
    Dołączył
    Oct 2007
    Skąd
    Köln
    Posty
    9,414
     Podziękowania : 
    Podziękował: 243
    Doceniono: 37,518 razy w 1,148 postach
     UFS Stats Uploady : 
    Filmy: 892
    Gry: 597
    Programy: 14
    TV's: 297
    Muzyka: 87
    Porno: 69
    Inne: 66
    Małe uploady: 12
     UFS Stats Konta : 
    Gmail: 205
    Inne: 648
     Total Upload : 
    P2M UP: 8184.15 GB
     Total CA : 
    Total CA: 14861 AC
     Total HTTP Upload : 
    HTTP UP: 0.7 GB
    Stachu jest nieaktywny

    mh Intouchables [2011][Blu-Ray][1080p][FRA]

    Nietykalni
    Intouchables




    Gatunek: Biograficzny, Dramat, Komedia
    Produkcja: Francja
    Premiera: 13 kwietnia 2012 (Polska) 2012-04-13, 23 września 2011 (świat) 2011-09-23
    Reżyseria: Olivier Nakache, Eric Toledano
    Scenariusz: Olivier Nakache, Eric Toledano
    Ocena: 8,7 / 10
    Muzyka: Ludovico Einaudi
    Zdjęcia: Mathieu Vadepied
    Dystrybucja: Gutek Film



    Sparaliżowany milioner zatrudnia do opieki młodego chłopaka z przedmieścia, który właśnie wyszedł z więzienia.



    Philippe - François Cluzet
    Driss - Omar Sy
    Yvonne - Anne Le Ny
    Magalie - Audrey Fleurot
    Marcelle - Clotilde Mollet
    Elisa - Alba Gaïa Kraghede Bellugi
    Adama - Cyril Mendy
    Albert - Christian Ameri









    Video
    ID : 1
    Format : AVC
    Format/Info : Advanced Video Codec
    Format profile : High@L4.1
    Format settings, CABAC : Yes
    Format settings, ReFrames : 4 frames
    Codec ID : V_MPEG4/ISO/AVC
    Duration : 1h 52mn
    Bit rate : 8 634 Kbps
    Width : 1 920 pixels
    Height : 1 040 pixels
    Display aspect ratio : 1.85:1
    Frame rate mode : Constant
    Frame rate : 24.000 fps
    Color space : YUV
    Chroma subsampling : 4:2:0
    Bit depth : 8 bits
    Scan type : Progressive
    Bits/(Pixel*Frame) : 0.180
    Stream size : 6.60 GiB (83%)
    Writing library : x264 core 120 r2164 da19765
    Encoding settings : cabac=1 / ref=4 / deblock=1:0:0 / analyse=0x3:0x113 / me=umh / subme=7 / psy=1 / psy_rd=1.00:0.15 / mixed_ref=1 / me_range=16 / chroma_me=1 / trellis=1 / 8x8dct=1 / cqm=0 / deadzone=21,11 / fast_pskip=0 / chroma_qp_offset=-3 / threads=12 / sliced_threads=0 / nr=0 / decimate=1 / interlaced=0 / bluray_compat=0 / constrained_intra=0 / bframes=3 / b_pyramid=2 / b_adapt=1 / b_bias=0 / direct=1 / weightb=1 / open_gop=0 / weightp=2 / keyint=250 / keyint_min=24 / scenecut=40 / intra_refresh=0 / rc_lookahead=40 / rc=2pass / mbtree=1 / bitrate=8634 / ratetol=1.0 / qcomp=0.60 / qpmin=0 / qpmax=69 / qpstep=4 / cplxblur=20.0 / qblur=0.5 / ip_ratio=1.40 / aq=1:1.00
    Language : English
    Default : Yes
    Forced : No

    Audio
    ID : 2
    Format : DTS
    Format/Info : Digital Theater Systems
    Mode : 16
    Format settings, Endianness : Big
    Codec ID : A_DTS
    Duration : 1h 52mn
    Bit rate mode : Constant
    Bit rate : 1 509 Kbps
    Channel(s) : 6 channels
    Channel positions : Front: L C R, Side: L R, LFE
    Sampling rate : 48.0 KHz
    Bit depth : 24 bits
    Compression mode : Lossy
    Stream size : 1.18 GiB (15%)
    Title : French
    Language : French
    Default : Yes
    Forced : No




    PART1-2
    Nazwa pliku: Intouchables.2011.FRENCH.1080p.BluRay.partx.rar
    Rozmiar Pliku: 3,42 GB
    Rozmiar segmentu: 9,00 MB
    Liczba segmentów: 389
    Liczba mirrorów: 11


    PART3
    Nazwa pliku: Intouchables.2011.FRENCH.1080p.BluRay.x264.part3.r ar
    Rozmiar Pliku: 1,79 GB
    Rozmiar segmentu: 9,00 MB
    Liczba segmentów: 204
    Liczba mirrorów: 11

    Hasło: www.ufs.pl

    Masz problem z programem MoorHunt? Zajrzyj do działu Poradniki & FAQ tego programu.
    Zalecamy pobieranie za pomocą MailShare







    Przepraszamy, ale nie możesz zobaczyć tego tematu. Musisz sie Zarejestrować
    albo Zalogować

    Upload wykonany w MH 0.6.7.2
    Ostatnio edytowane przez jeep ; 05-11-2016 o 11:58
    Member -> Full Member -> UFS Trial -> UFS Uploader -> UFS Elite -> Moderator -> UFS Elite -> Super Vip -> Elite Kreator -> Elite Uploader -> Super Vip -> Elite Uploader -> Super Vip
    Intel Core i5 2500 3.3GHz
    SilentiumPC
    Asus H61
    Kingston HyperX 16GB DDR3 1600MHz
    Seagate 500GB
    Toshiba 320GB
    Seagate Desktop HDD 2TB
    GoodRam SSD 120GB
    Gigabyte GeForce 1060 6GB XTreme OC
    Nagrywarka Asus
    Thermaltake Modular SE 530W
    Zalman 3 Plus White



  2.    Sponsored Links




  3. #2
    Retired Awatar Młody
     Info : 
    Dołączył
    Feb 2008
    Skąd
    Urzejowice
    Posty
    2,285
     Podziękowania : 
    Podziękował: 42
    Doceniono: 319 razy w 96 postach
     UFS Stats Uploady : 
    Filmy: 67
    Gry: 24
    TV's: 34
    Muzyka: 58
    Porno: 2
     UFS Stats Konta : 
    Gmail: 122
    Inne: 237
     Total Upload : 
    P2M UP: 556.7 GB
     Total CA : 
    Total CA: 10670 AC
    Młody jest nieaktywny

    Domyślnie

    niezatwierdzone




Informacje o wątku

Użytkownicy przeglądający ten wątek

Aktualnie 1 użytkownik(ów) przegląda ten wątek. (0 zarejestrowany(ch) oraz 1 gości)

Podobne wątki

  1. Intouchables [2011][DVDRip][FRA][Napisy PL]
    Przez Pan Tadeusz w dziale HQ (High Quality - Wysoka Jakość)
    Odpowiedzi: 1
    Ostatni post / autor: 18-10-2012, 22:22
  2. Intouchables [2011][BRRip][AC3][FRA][Napisy PL]
    Przez akira5 w dziale HQ (High Quality - Wysoka Jakość)
    Odpowiedzi: 2
    Ostatni post / autor: 05-05-2012, 11:54

Uprawnienia umieszczania postów

  • Nie możesz zakładać nowych tematów
  • Nie możesz pisać wiadomości
  • Nie możesz dodawać załączników
  • Nie możesz edytować swoich postów
  •