Aktualizacje seriali
 



Ogłoszenia
UFS - dotacje
Dotacje SMS
Jak korzystać z forumowej szukajki



Pokaż wyniki od 1 do 2 z 2

Wątek: No Strings Attached [2011][BDRip][720p][AC3][LEK-PL]

  1. #1
    Gdzie są pieniądze za las?! Awatar Stachu
     Info : 
    Dołączył
    Oct 2007
    Skąd
    Köln
    Posty
    9,414
     Podziękowania : 
    Podziękował: 243
    Doceniono: 37,494 razy w 1,148 postach
     UFS Stats Uploady : 
    Filmy: 892
    Gry: 597
    Programy: 14
    TV's: 297
    Muzyka: 87
    Porno: 69
    Inne: 66
    Małe uploady: 12
     UFS Stats Konta : 
    Gmail: 205
    Inne: 648
     Total Upload : 
    P2M UP: 8184.15 GB
     Total CA : 
    Total CA: 14861 AC
     Total HTTP Upload : 
    HTTP UP: 0.7 GB
    Stachu jest nieaktywny

    mh No Strings Attached [2011][BDRip][720p][AC3][LEK-PL]

    No Strings Attached
    Sex Story




    Gatunek: Komedia rom.
    Produkcja: USA
    Premiera: 18 marca 2011 (Polska) 2011-03-18, 11 stycznia 2011 (świat) 2011-01-11
    Reżyseria: Ivan Reitman
    Scenariusz: Elizabeth Meriwether
    Ocena: 6,5 / 10
    Muzyka: John Debney
    Zdjęcia: Rogier Stoffers
    Dystrybucja: United International Pictures Sp z o.o.



    Emma (Natalie Portman) i Adam (Ashton Kutcher) przypadkowo spotykają się po latach. Ponieważ Emma cierpi na swego rodzaju "alergię na związki", a Adam zupełnie je odrzucił – zresztą dlatego, że jego ojciec (Kevin Kline) zaczął spotykać się z jego byłą dziewczyną - oboje decydują wyrzec się emocji, z jakimi ma się do czynienia będąc w romantycznym związku i zostać przyjaciółmi. Zero zaangażowania, kłamstw, zazdrości, wspólnych śniadań, tęsknoty... jednym słowem żadnych zobowiązań.



    Emma Kurtzman - Natalie Portman
    Adam Franklin - Ashton Kutcher
    Alvin - Kevin Kline
    Dr Metzner - Cary Elwes
    Patrice - Greta Gerwig
    Lucy - Lake Bell
    Katie Kurtzman - Olivia Thirlby
    Wallace - Ludacris









    Video
    ID : 0
    Format : MPEG-4 Visual
    Format profile : Simple@L3
    Format settings, BVOP : No
    Format settings, QPel : No
    Format settings, GMC : No warppoints
    Format settings, Matrix : Default (H.263)
    Codec ID : XVID
    Codec ID/Hint : XviD
    Duration : 1h 47mn
    Bit rate : 3 494 Kbps
    Width : 1 280 pixels
    Height : 534 pixels
    Display aspect ratio : 2.40:1
    Frame rate : 23.976 fps
    Color space : YUV
    Chroma subsampling : 4:2:0
    Bit depth : 8 bits
    Scan type : Progressive
    Compression mode : Lossy
    Bits/(Pixel*Frame) : 0.213
    Stream size : 2.63 GiB (88%)
    Writing library : XviD 63

    Audio
    ID : 1
    Format : AC-3
    Format/Info : Audio Coding 3
    Mode extension : CM (complete main)
    Format settings, Endianness : Big
    Codec ID : 2000
    Duration : 1h 47mn
    Bit rate mode : Constant
    Bit rate : 448 Kbps
    Channel(s) : 6 channels
    Channel positions : Front: L C R, Side: L R, LFE
    Sampling rate : 48.0 KHz
    Bit depth : 16 bits
    Compression mode : Lossy
    Stream size : 346 MiB (11%)
    Alignment : Split accross interleaves
    Interleave, duration : 42 ms (1.00 video frame)
    Interleave, preload duration : 500 ms




    Nazwa pliku: No.Strings.Attached.2011.PL.720p.BRRip.XviD.AC3.av i
    Rozmiar Pliku: 2,98 GB
    Rozmiar segmentu: 9,00 MB
    Liczba segmentów: 340
    Liczba mirrorów: 12

    Hasło: www.ufs.pl

    Masz problem z programem MoorHunt? Zajrzyj do działu Poradniki & FAQ tego programu.
    Zalecamy pobieranie za pomocą MailShare







    Przepraszamy, ale nie możesz zobaczyć tego tematu. Musisz sie Zarejestrować
    albo Zalogować

    Upload wykonany w MH 0.6.7.2
    Ostatnio edytowane przez jeep ; 05-11-2016 o 11:55
    Member -> Full Member -> UFS Trial -> UFS Uploader -> UFS Elite -> Moderator -> UFS Elite -> Super Vip -> Elite Kreator -> Elite Uploader -> Super Vip -> Elite Uploader -> Super Vip
    Intel Core i5 2500 3.3GHz
    SilentiumPC
    Asus H61
    Kingston HyperX 16GB DDR3 1600MHz
    Seagate 500GB
    Toshiba 320GB
    Seagate Desktop HDD 2TB
    GoodRam SSD 120GB
    Gigabyte GeForce 1060 6GB XTreme OC
    Nagrywarka Asus
    Thermaltake Modular SE 530W
    Zalman 3 Plus White



  2.    Sponsored Links




  3. #2
    Impeccable Awatar Kingpin
     Info : 
    Dołączył
    May 2008
    Skąd
    Paris XVII arr
    Posty
    5,326
     Podziękowania : 
    Podziękował: 1,489
    Doceniono: 60,438 razy w 526 postach
     UFS Stats Uploady : 
    Filmy: 607
    Gry: 211
    Programy: 19
    TV's: 22
    Muzyka: 2
    Porno: 12
    Inne: 2
     UFS Stats Konta : 
    Gmail: 20
    Inne: 75
     Total Upload : 
    P2M UP: 3523.05 GB
     Total CA : 
    Total CA: 2080 AC
    Kingpin jest nieaktywny

    Domyślnie

    Ostatnio edytowane przez Kingpin ; 22-01-2013 o 20:18


    מֶלֶך


Informacje o wątku

Użytkownicy przeglądający ten wątek

Aktualnie 1 użytkownik(ów) przegląda ten wątek. (0 zarejestrowany(ch) oraz 1 gości)

Podobne wątki

  1. 0.7GB No Strings Attached [2011][BDRip][ENG]
    Przez Only one w dziale HQ (High Quality - Wysoka Jakość)
    Odpowiedzi: 1
    Ostatni post / autor: 18-01-2014, 09:18
  2. 0.7GB No Strings Attached [2011][BDRip][ENG]
    Przez Yaro w dziale HQ (High Quality - Wysoka Jakość)
    Odpowiedzi: 2
    Ostatni post / autor: 14-05-2011, 13:25

Uprawnienia umieszczania postów

  • Nie możesz zakładać nowych tematów
  • Nie możesz pisać wiadomości
  • Nie możesz dodawać załączników
  • Nie możesz edytować swoich postów
  •