Aktualizacje seriali
 



Ogłoszenia
UFS - dotacje
Dotacje SMS
Jak korzystać z forumowej szukajki



Pokaż wyniki od 1 do 2 z 2

Wątek: Pearl Harbor [2001][BRRip][720p][AC3][LEK-PL]

  1. #1
    Gdzie są pieniądze za las?! Awatar Stachu
     Info : 
    Dołączył
    Oct 2007
    Skąd
    Köln
    Posty
    9,414
     Podziękowania : 
    Podziękował: 243
    Doceniono: 37,502 razy w 1,148 postach
     UFS Stats Uploady : 
    Filmy: 892
    Gry: 597
    Programy: 14
    TV's: 297
    Muzyka: 87
    Porno: 69
    Inne: 66
    Małe uploady: 12
     UFS Stats Konta : 
    Gmail: 205
    Inne: 648
     Total Upload : 
    P2M UP: 8184.15 GB
     Total CA : 
    Total CA: 14861 AC
     Total HTTP Upload : 
    HTTP UP: 0.7 GB
    Stachu jest nieaktywny

    mh Pearl Harbor [2001][BRRip][720p][AC3][LEK-PL]

    Pearl Harbor



    Gatunek: Melodramat, Wojenny
    Produkcja: USA
    Premiera: 6 lipca 2001 (Polska) 2001-07-06, 21 maja 2001 (świat) 2001-05-21
    Reżyseria: Michael Bay
    Scenariusz: Randall Wallace
    Ocena: 7,4 / 10
    Muzyka: Hans Zimmer
    Zdjęcia: John Schwartzman



    Opowieść o wojnie, miłości, męskiej przyjaźni i wielkiej pasji. Stany Zjednoczone, rok 1941. Dwaj przyjaciele i zapaleni piloci - Rafe (Ben Affleck) i Danny (Josh Hartnett) służą w lotnictwie. Rafe zakochuje się z wzajemnością w pięknej pielęgniarce Evelyn (Kate Beckinsale). Sielanka kończy się, gdy młody pilot opuszcza Amerykę, by wziąć udział w bitwie o Anglię. Wkrótce przychodzi wiadomość o jego śmierci. Kilka miesięcy później Evelyn i Danny, którzy w międzyczasie zostali przeniesieni do Pear Harbor na Hawajach, nawiązują romans. Tymczasem z wojny wraca cały i zdrowy Rafe. W tym momencie w splątane losy bohaterów ingeruje historia - japońskie bomby spadają na Pearl Harbor...



    Kapitan Rafe McCawley - Ben Affleck
    Kapitan Danny Walker - Josh Hartnett
    Pielęgniarka porucznik Evelyn Johnson - Kate Beckinsale
    Podoficer Doris 'Dorie' Miller - Cuba Gooding Jr.
    Prezydent Franklin Delano Roosevelt - Jon Voight
    Podpułkownik James 'Jimmy' Doolittle - Alec Baldwin
    Sierżant Earl Sistern - Tom Sizemore
    Porucznik Billy Thompson - William Lee Scott









    Video
    ID : 0
    Format : AVC
    Format/Info : Advanced Video Codec
    Format profile : Baseline@L1.3
    Format settings, CABAC : No
    Format settings, ReFrames : 2 frames
    Codec ID : h264
    Duration : 3h 3mn
    Bit rate : 2 000 Kbps
    Width : 1 280 pixels
    Height : 536 pixels
    Display aspect ratio : 2.40:1
    Frame rate : 23.976 fps
    Color space : YUV
    Chroma subsampling : 4:2:0
    Bit depth : 8 bits
    Scan type : Progressive
    Bits/(Pixel*Frame) : 0.122
    Stream size : 2.56 GiB (94%)
    Writing library : x264 core 116 r2074 2641b9e
    Encoding settings : cabac=0 / ref=2 / deblock=1:0:0 / analyse=0x1:0x111 / me=umh / subme=6 / psy=1 / psy_rd=1.00:0.00 / mixed_ref=1 / me_range=16 / chroma_me=1 / trellis=0 / 8x8dct=0 / cqm=0 / deadzone=21,11 / fast_pskip=1 / chroma_qp_offset=-2 / threads=6 / sliced_threads=0 / nr=0 / decimate=1 / interlaced=0 / bluray_compat=0 / constrained_intra=0 / bframes=0 / weightp=0 / keyint=250 / keyint_min=23 / scenecut=40 / intra_refresh=0 / rc_lookahead=40 / rc=abr / mbtree=1 / bitrate=2000 / ratetol=1.0 / qcomp=0.60 / qpmin=0 / qpmax=69 / qpstep=4 / ip_ratio=1.40 / aq=1:1.00

    Audio
    ID : 1
    Format : MPEG Audio
    Format version : Version 1
    Format profile : Layer 3
    Mode : Joint stereo
    Mode extension : MS Stereo
    Codec ID : 55
    Codec ID/Hint : MP3
    Duration : 3h 3mn
    Bit rate mode : Variable
    Bit rate : 123 Kbps
    Channel(s) : 2 channels
    Sampling rate : 48.0 KHz
    Compression mode : Lossy
    Stream size : 161 MiB (6%)
    Alignment : Aligned on interleaves
    Interleave, duration : 24 ms (0.58 video frame)
    Interleave, preload duration : 1087 ms
    Writing library : LAME3.98.4




    Nazwa pliku: Pearl.Harbor.2001.PL.720p.BRRip.XviD.AC3.avi
    Rozmiar Pliku: 2,73 GB
    Rozmiar segmentu: 9,00 MB
    Liczba segmentów: 311
    Liczba mirrorów: 12

    Hasło: www.ufs.pl

    Masz problem z programem MoorHunt? Zajrzyj do działu Poradniki & FAQ tego programu.
    Zalecamy pobieranie za pomocą MailShare







    Przepraszamy, ale nie możesz zobaczyć tego tematu. Musisz sie Zarejestrować
    albo Zalogować

    Upload wykonany w MH 0.6.7.2
    Ostatnio edytowane przez jeep ; 05-11-2016 o 11:53
    Member -> Full Member -> UFS Trial -> UFS Uploader -> UFS Elite -> Moderator -> UFS Elite -> Super Vip -> Elite Kreator -> Elite Uploader -> Super Vip -> Elite Uploader -> Super Vip
    Intel Core i5 2500 3.3GHz
    SilentiumPC
    Asus H61
    Kingston HyperX 16GB DDR3 1600MHz
    Seagate 500GB
    Toshiba 320GB
    Seagate Desktop HDD 2TB
    GoodRam SSD 120GB
    Gigabyte GeForce 1060 6GB XTreme OC
    Nagrywarka Asus
    Thermaltake Modular SE 530W
    Zalman 3 Plus White



  2. Liczba osób które doceniły autora: 1


  3.    Sponsored Links




  4. #2
    Impeccable Awatar Kingpin
     Info : 
    Dołączył
    May 2008
    Skąd
    Paris XVII arr
    Posty
    5,329
     Podziękowania : 
    Podziękował: 1,492
    Doceniono: 60,447 razy w 526 postach
     UFS Stats Uploady : 
    Filmy: 607
    Gry: 211
    Programy: 19
    TV's: 22
    Muzyka: 2
    Porno: 12
    Inne: 2
     UFS Stats Konta : 
    Gmail: 20
    Inne: 75
     Total Upload : 
    P2M UP: 3523.05 GB
     Total CA : 
    Total CA: 2080 AC
    Kingpin jest nieaktywny

    Domyślnie



    מֶלֶך


Informacje o wątku

Użytkownicy przeglądający ten wątek

Aktualnie 1 użytkownik(ów) przegląda ten wątek. (0 zarejestrowany(ch) oraz 1 gości)

Podobne wątki

  1. 8GB Pearl Harbor [2001][Blu-Ray][1080p][ENG]
    Przez Stachu w dziale Filmy High Definition [Dział od rangi Full Member]
    Odpowiedzi: 1
    Ostatni post / autor: 08-02-2013, 08:40

Uprawnienia umieszczania postów

  • Nie możesz zakładać nowych tematów
  • Nie możesz pisać wiadomości
  • Nie możesz dodawać załączników
  • Nie możesz edytować swoich postów
  •