Aktualizacje seriali
 



Ogłoszenia
UFS - dotacje
Dotacje SMS
Jak korzystać z forumowej szukajki



Pokaż wyniki od 1 do 3 z 3

Wątek: End of Watch [2012][Blu-Ray][1080p][ENG]

  1. #1
    Gdzie są pieniądze za las?! Awatar Stachu
     Info : 
    Dołączył
    Oct 2007
    Skąd
    Köln
    Posty
    9,414
     Podziękowania : 
    Podziękował: 243
    Doceniono: 37,510 razy w 1,148 postach
     UFS Stats Uploady : 
    Filmy: 892
    Gry: 597
    Programy: 14
    TV's: 297
    Muzyka: 87
    Porno: 69
    Inne: 66
    Małe uploady: 12
     UFS Stats Konta : 
    Gmail: 205
    Inne: 648
     Total Upload : 
    P2M UP: 8184.15 GB
     Total CA : 
    Total CA: 14861 AC
     Total HTTP Upload : 
    HTTP UP: 0.7 GB
    Stachu jest nieaktywny

    mh End of Watch [2012][Blu-Ray][1080p][ENG]

    End of Watch
    Bogowie ulicy




    Gatunek: Kryminał, Thriller
    Produkcja: USA
    Premiera: 14 grudnia 2012 (Polska) 2012-12-14, 8 września 2012 (świat) 2012-09-08
    Reżyseria: David Ayer
    Scenariusz: David Ayer
    Ocena: 7,9 / 10
    Muzyka: David Sardy
    Zdjęcia: Roman Vasyanov
    Dystrybucja: Monolith Films



    Taylor i Zavala, dwóch młodych policjantów, patroluje niespokojne ulice południowego Los Angeles. Podczas rutynowego patrolu wpadają na trop makabrycznej zbrodni. Stojący za nią gang narkotykowy wydaje na nich wyrok.



    Brian Taylor - Jake Gyllenhaal
    Mike Zavala - Michael Peńa
    Gabby - Natalie Martinez
    Janet - Anna Kendrick
    Van Hauser - David Harbour
    Sarge - Frank Grillo
    Orozco - America Ferrera
    Pan Tre - Cle Shaheed Sloan









    Video
    ID : 1
    Format : AVC
    Format/Info : Advanced Video Codec
    Format profile : High@L4.1
    Format settings, CABAC : Yes
    Format settings, ReFrames : 4 frames
    Codec ID : V_MPEG4/ISO/AVC
    Duration : 1h 48mn
    Bit rate : 16.5 Mbps
    Width : 1 916 pixels
    Height : 1 080 pixels
    Display aspect ratio : 16:9
    Frame rate mode : Constant
    Frame rate : 24.000 fps
    Color space : YUV
    Chroma subsampling : 4:2:0
    Bit depth : 8 bits
    Scan type : Progressive
    Bits/(Pixel*Frame) : 0.332
    Stream size : 12.2 GiB (90%)
    Writing library : x264 core 128 r2216+688+33 06dac27 tMod+MixAQ [8-bit@4:2:0 X86_64]
    Encoding settings : cabac=1 / ref=4 / deblock=1:-3:-3 / analyse=0x3:0x113 / me=umh / subme=11 / psy=1 / fade_compensate=0.00 / psy_rd=0.95:0.00 / mixed_ref=1 / me_range=48 / chroma_me=1 / trellis=2 / 8x8dct=1 / cqm=0 / deadzone=21,11 / fast_pskip=0 / chroma_qp_offset=-2 / threads=18 / lookahead_threads=3 / sliced_threads=0 / nr=0 / decimate=0 / interlaced=0 / bluray_compat=0 / constrained_intra=0 / fgo=0 / bframes=8 / b_pyramid=2 / b_adapt=2 / b_bias=0 / direct=3 / weightb=1 / open_gop=0 / weightp=2 / keyint=240 / keyint_min=24 / scenecut=40 / intra_refresh=0 / rc_lookahead=240 / rc=2pass / mbtree=1 / bitrate=16500 / ratetol=1.0 / qcomp=0.70 / qpmin=0 / qpmax=69 / qpstep=4 / cplxblur=20.0 / qblur=0.5 / ip_ratio=1.10 / aq=4 / aq-strength=0.85 / aq-sensitivity=10.00 / aq-ifactor=1.00 / aq-pfactor=1.00 / aq-bfactor=1.00 / aq2=0
    Language : English
    Default : Yes
    Forced : No

    Audio
    ID : 2
    Format : DTS
    Format/Info : Digital Theater Systems
    Mode : 16
    Format settings, Endianness : Big
    Codec ID : A_DTS
    Duration : 1h 48mn
    Bit rate mode : Constant
    Bit rate : 1 509 Kbps
    Channel(s) : 6 channels
    Channel positions : Front: L C R, Side: L R, LFE
    Sampling rate : 48.0 KHz
    Bit depth : 16 bits
    Compression mode : Lossy
    Stream size : 1.14 GiB (8%)
    Language : English
    Default : Yes
    Forced : No




    PART1-4
    Nazwa pliku: End.of.Watch.2012.1080p.BluRay.DTS-HDChina.partx.rar
    Rozmiar Pliku: 3,42 GB
    Rozmiar segmentu: 9,00 MB
    Liczba segmentów: 389
    Liczba mirrorów: 11


    PART5
    Nazwa pliku: End.of.Watch.2012.1080p.BluRay.x264.DTS-HDChina.part5.rar
    Rozmiar Pliku: 1,13 GB
    Rozmiar segmentu: 9,00 MB
    Liczba segmentów: 129
    Liczba mirrorów: 10

    Hasło: www.ufs.pl

    Masz problem z programem MoorHunt? Zajrzyj do działu Poradniki & FAQ tego programu.
    Zalecamy pobieranie za pomocą MailShare







    Przepraszamy, ale nie możesz zobaczyć tego tematu. Musisz sie Zarejestrować
    albo Zalogować

    Upload zawiera 10% danych naprawczych!
    Jak korzystać z danych naprawczych? Tutaj znajdziesz poradnik!
    Upload wykonany w MH 0.6.7.2
    Ostatnio edytowane przez jeep ; 01-11-2016 o 21:58
    Member -> Full Member -> UFS Trial -> UFS Uploader -> UFS Elite -> Moderator -> UFS Elite -> Super Vip -> Elite Kreator -> Elite Uploader -> Super Vip -> Elite Uploader -> Super Vip
    Intel Core i5 2500 3.3GHz
    SilentiumPC
    Asus H61
    Kingston HyperX 16GB DDR3 1600MHz
    Seagate 500GB
    Toshiba 320GB
    Seagate Desktop HDD 2TB
    GoodRam SSD 120GB
    Gigabyte GeForce 1060 6GB XTreme OC
    Nagrywarka Asus
    Thermaltake Modular SE 530W
    Zalman 3 Plus White



  2.    Sponsored Links




  3. #2
    Impeccable Awatar Kingpin
     Info : 
    Dołączył
    May 2008
    Skąd
    Paris XVII arr
    Posty
    5,331
     Podziękowania : 
    Podziękował: 1,494
    Doceniono: 60,457 razy w 527 postach
     UFS Stats Uploady : 
    Filmy: 607
    Gry: 211
    Programy: 19
    TV's: 22
    Muzyka: 2
    Porno: 12
    Inne: 2
     UFS Stats Konta : 
    Gmail: 20
    Inne: 75
     Total Upload : 
    P2M UP: 3523.05 GB
     Total CA : 
    Total CA: 2080 AC
    Kingpin jest nieaktywny

    Domyślnie

    Ostatnio edytowane przez Kingpin ; 21-01-2013 o 19:29


    מֶלֶך


  4. #3
    VIP
     Info : 
    Dołączył
    Jan 2013
    Posty
    244
     Podziękowania : 
    Podziękował: 242
    Doceniono: 0 razy w 0 postach
    pajpej jest nieaktywny

    Domyślnie

    wszystko ok polecam !!

Informacje o wątku

Użytkownicy przeglądający ten wątek

Aktualnie 1 użytkownik(ów) przegląda ten wątek. (0 zarejestrowany(ch) oraz 1 gości)

Podobne wątki

  1. The Watch [2012][WEBRip][AC3][ENG]
    Przez Santi w dziale HQ (High Quality - Wysoka Jakość)
    Odpowiedzi: 2
    Ostatni post / autor: 30-11-2012, 16:00

Uprawnienia umieszczania postów

  • Nie możesz zakładać nowych tematów
  • Nie możesz pisać wiadomości
  • Nie możesz dodawać załączników
  • Nie możesz edytować swoich postów
  •