Aktualizacje seriali
 



Ogłoszenia
UFS - dotacje
Dotacje SMS
Jak korzystać z forumowej szukajki



Pokaż wyniki od 1 do 4 z 4

Wątek: Cloud Atlas [2012][Blu-Ray][1080p][ENG]

  1. #1
    Gdzie są pieniądze za las?! Awatar Stachu
     Info : 
    Dołączył
    Oct 2007
    Skąd
    Köln
    Posty
    9,414
     Podziękowania : 
    Podziękował: 243
    Doceniono: 37,501 razy w 1,148 postach
     UFS Stats Uploady : 
    Filmy: 892
    Gry: 597
    Programy: 14
    TV's: 297
    Muzyka: 87
    Porno: 69
    Inne: 66
    Małe uploady: 12
     UFS Stats Konta : 
    Gmail: 205
    Inne: 648
     Total Upload : 
    P2M UP: 8184.15 GB
     Total CA : 
    Total CA: 14861 AC
     Total HTTP Upload : 
    HTTP UP: 0.7 GB
    Stachu jest nieaktywny

    mh Cloud Atlas [2012][Blu-Ray][1080p][ENG]

    Cloud Atlas
    Atlas chmur




    Gatunek: Dramat, Sci-Fi
    Produkcja: Hongkong, Niemcy, Singapur, USA
    Premiera: 23 listopada 2012 (Polska) 2012-11-23, 8 września 2012 (świat) 2012-09-08
    Reżyseria: Tom Tykwer, Lana Wachowski, Andy Wachowski
    Scenariusz: Tom Tykwer, Andy Wachowski, Lana Wachowski
    Ocena: 7,4 / 10
    Muzyka: Reinhold Heil , Johnny Klimek (więcej...)
    Zdjęcia: John Toll , Frank Griebe
    Dystrybucja: Kino Świat



    Film oparty na epopei Davida Mitchella. Opowiada o postaciach z różnych epok i zakątków świata, których decyzje i czyny mają duży wpływ na teraźniejszość, przyszłość i przeszłość naszej planety.



    Dr Henry Goose / Kierownik hotelu / Isaac Sachs / Dermot Hoggins / Aktor grający Cavendisha / Zachariasz - Tom Hanks
    Członkini plemienia / Jocasta Ayrs / Luisa Rey / Indianka na przyjęciu / Ovid / Meronym - Halle Berry
    Kapitan Molyneux / Vyvyan Ayrs / Timothy Cavendish / Koreański muzyk / Profet - Jim Broadbent
    Haskell Moore / Tadeusz Kesselring / Bill Smoke / Pielęgniarka Noakes / Członek Rady Mephi / Stary Georgie - Hugo Weaving
    Adam Ewing / Ubogi klient hotelu / Ojciec Megan / Szkocki góral / Hae-Joo Chang / Adam / Szwagier Zachariasza - Jim Sturgess
    Tilda / Matka Megan / Meksykanka / Sonmi-451 / Sonmi-351 / Prostytutka Sonmi - Doona Bae
    Chłopak pokładowy / Robert Frobisher / Właściciel sklepu z płytami / Georgette / Współplemieniec - Ben Whishaw
    Kupaka / Joe Napier / An-kor Apis / Profet - Keith David









    Video
    ID : 1
    Format : AVC
    Format/Info : Advanced Video Codec
    Format profile : High@L4.1
    Format settings, CABAC : Yes
    Format settings, ReFrames : 5 frames
    Codec ID : V_MPEG4/ISO/AVC
    Duration : 2h 52mn
    Bit rate : 13.3 Mbps
    Width : 1 920 pixels
    Height : 816 pixels
    Display aspect ratio : 2.35:1
    Frame rate mode : Constant
    Frame rate : 23.976 fps
    Color space : YUV
    Chroma subsampling : 4:2:0
    Bit depth : 8 bits
    Scan type : Progressive
    Bits/(Pixel*Frame) : 0.353
    Stream size : 15.9 GiB (88%)
    Title : Cloud.Atlas.2012.1080p.Bluray.X264-HDT
    Writing library : x264 core 129 r2230 1cffe9f
    Encoding settings : cabac=1 / ref=5 / deblock=1:-3:-3 / analyse=0x3:0x113 / me=tesa / subme=11 / psy=1 / psy_rd=0.90:0.15 / mixed_ref=1 / me_range=16 / chroma_me=1 / trellis=2 / 8x8dct=1 / cqm=0 / deadzone=21,11 / fast_pskip=0 / chroma_qp_offset=-3 / threads=12 / lookahead_threads=2 / sliced_threads=0 / nr=0 / decimate=1 / interlaced=0 / bluray_compat=0 / constrained_intra=0 / bframes=7 / b_pyramid=2 / b_adapt=2 / b_bias=0 / direct=3 / weightb=1 / open_gop=0 / weightp=2 / keyint=240 / keyint_min=23 / scenecut=40 / intra_refresh=0 / rc_lookahead=60 / rc=crf / mbtree=0 / crf=19.4 / qcomp=0.70 / qpmin=0 / qpmax=69 / qpstep=4 / vbv_maxrate=50000 / vbv_bufsize=62500 / crf_max=0.0 / nal_hrd=none / ip_ratio=1.30 / pb_ratio=1.30 / aq=2:0.95
    Language : English
    Default : Yes
    Forced : No

    Audio
    ID : 2
    Format : DTS
    Format/Info : Digital Theater Systems
    Mode : 16
    Format settings, Endianness : Big
    Codec ID : A_DTS
    Duration : 2h 52mn
    Bit rate mode : Constant
    Bit rate : 1 510 Kbps
    Channel(s) : 6 channels
    Channel positions : Front: L C R, Side: L R, LFE
    Sampling rate : 48.0 KHz
    Bit depth : 24 bits
    Compression mode : Lossy
    Stream size : 1.82 GiB (10%)
    Title : English DTS
    Language : English
    Default : Yes
    Forced : No




    PART1-5
    Nazwa pliku: Cloud.Atlas.2012.1080p.Bluray-HDT.partx.rar
    Rozmiar Pliku: 3,42 GB
    Rozmiar segmentu: 9,00 MB
    Liczba segmentów: 389
    Liczba mirrorów: 11

    Hasło: www.ufs.pl

    PART6
    Nazwa pliku: Cloud.Atlas.2012.1080p.Bluray-HDT.part6.rar
    Rozmiar Pliku: 2,63 GB
    Rozmiar segmentu: 9,00 MB
    Liczba segmentów: 300
    Liczba mirrorów: 11

    Hasło: www.ufs.pl

    Masz problem z programem MoorHunt? Zajrzyj do działu Poradniki & FAQ tego programu.
    Zalecamy pobieranie za pomocą MailShare







    Przepraszamy, ale nie możesz zobaczyć tego tematu. Musisz sie Zarejestrować
    albo Zalogować

    Upload wykonany w MH 0.6.7.2
    Ostatnio edytowane przez jeep ; 01-11-2016 o 22:13
    Member -> Full Member -> UFS Trial -> UFS Uploader -> UFS Elite -> Moderator -> UFS Elite -> Super Vip -> Elite Kreator -> Elite Uploader -> Super Vip -> Elite Uploader -> Super Vip
    Intel Core i5 2500 3.3GHz
    SilentiumPC
    Asus H61
    Kingston HyperX 16GB DDR3 1600MHz
    Seagate 500GB
    Toshiba 320GB
    Seagate Desktop HDD 2TB
    GoodRam SSD 120GB
    Gigabyte GeForce 1060 6GB XTreme OC
    Nagrywarka Asus
    Thermaltake Modular SE 530W
    Zalman 3 Plus White



  2.    Sponsored Links




  3. #2
    Retired Awatar SilentDeVir
     Info : 
    Dołączył
    Oct 2007
    Skąd
    Krzeszów
    Posty
    2,360
     Podziękowania : 
    Podziękował: 278
    Doceniono: 455 razy w 120 postach
     UFS Stats Uploady : 
    Filmy: 128
    Gry: 44
    TV's: 15
    Muzyka: 5
    Porno: 21
    Inne: 2
    Małe uploady: 1
     UFS Stats Konta : 
    Gmail: 32
    Inne: 386
     Total Upload : 
    P2M UP: 777.45 GB
     Total CA : 
    Total CA: 25320 AC
    SilentDeVir jest nieaktywny

    Domyślnie

    niezatwierdzone

  4. #3
    Full Member Awatar patryklab
     Info : 
    Dołączył
    Feb 2011
    Posty
    621
     Podziękowania : 
    Podziękował: 582
    Doceniono: 0 razy w 0 postach
    patryklab jest nieaktywny

    Domyślnie

    Czy ktoś już widział napisy do tej wersji?

    Pytania o cracki, seriale bądź napisy - 10 pkt
    Ostatnio edytowane przez kejo ; 24-01-2013 o 21:18

  5. #4
    Full Member
     Info : 
    Dołączył
    Jan 2008
    Posty
    350
     Podziękowania : 
    Podziękował: 348
    Doceniono: 0 razy w 0 postach
    pureinsane jest nieaktywny

    Domyślnie

    Wszystko w jak najlepszym porządku. Ściąga się elegancko. Jakościowo nic do zarzucenia.

Informacje o wątku

Użytkownicy przeglądający ten wątek

Aktualnie 1 użytkownik(ów) przegląda ten wątek. (0 zarejestrowany(ch) oraz 1 gości)

Podobne wątki

  1. 2GB Cloud Atlas [2012][R5][ENG]
    Przez F3 w dziale HQ (High Quality - Wysoka Jakość)
    Odpowiedzi: 1
    Ostatni post / autor: 13-12-2012, 16:51

Uprawnienia umieszczania postów

  • Nie możesz zakładać nowych tematów
  • Nie możesz pisać wiadomości
  • Nie możesz dodawać załączników
  • Nie możesz edytować swoich postów
  •