Aktualizacje seriali
 



Ogłoszenia
UFS - dotacje
Dotacje SMS
Jak korzystać z forumowej szukajki



Pokaż wyniki od 1 do 2 z 2

Wątek: Modlitwy Za Bobby'ego [2009][WEBRip][720p][LEK-PL]

  1. #1
    Gdzie są pieniądze za las?! Awatar Stachu
     Info : 
    Dołączył
    Oct 2007
    Skąd
    Köln
    Posty
    9,414
     Podziękowania : 
    Podziękował: 243
    Doceniono: 37,494 razy w 1,148 postach
     UFS Stats Uploady : 
    Filmy: 892
    Gry: 597
    Programy: 14
    TV's: 297
    Muzyka: 87
    Porno: 69
    Inne: 66
    Małe uploady: 12
     UFS Stats Konta : 
    Gmail: 205
    Inne: 648
     Total Upload : 
    P2M UP: 8184.15 GB
     Total CA : 
    Total CA: 14861 AC
     Total HTTP Upload : 
    HTTP UP: 0.7 GB
    Stachu jest nieaktywny

    mh Modlitwy Za Bobby'ego [2009][WEBRip][720p][LEK-PL]

    Modlitwy za Bobby'ego



    Produkcja: USA
    Data Premiery: 24 Stycznia 2009
    Reżyseria: Russell Mulcahy
    Scenariusz: Damian Ganczewski, Stanley Brooks
    Czas trwania: 1h 22min
    Gatunek: Dramat



    Tragiczny konflikt młodego chłopaka geja z jego bardzo religijną matką. Film fabularny oparty na prawdziwej historii. Nominowany do nagród Emmy i Złotych Globów m.in. dla znanej z Avatara Sigourney Weaver w roli matki Bobby'ego.



    Sigourney Weaver as Mary Griffith
    Henry Czerny as Robert Griffith
    Ryan Jonathan Kelley as Bobby Griffith
    Austin Nichols as Ed Griffith
    Dan Butler as the Rev. Whitsell
    Carly Schroeder as Joy Griffith
    Shannon Eagen as Nancy Griffith
    Scott Bailey as David
    Bryan Endress-Fox as Greg
    Rebecca Louise Miller as Jeanette
    Mary Griffith as herself in the Pride Parade scene










    Video
    ID : 1
    Format : AVC
    Format/Info : Advanced Video Codec
    Format profile : High@L3.1
    Format settings, CABAC : Yes
    Format settings, ReFrames : 1 frame
    Codec ID : avc1
    Codec ID/Info : Advanced Video Coding
    Duration : 1h 22mn
    Bit rate : 1 612 Kbps
    Maximum bit rate : 6 073 Kbps
    Width : 1 280 pixels
    Height : 720 pixels
    Display aspect ratio : 16:9
    Frame rate mode : Constant
    Frame rate : 25.000 fps
    Color space : YUV
    Chroma subsampling : 4:2:0
    Bit depth : 8 bits
    Scan type : Progressive
    Bits/(Pixel*Frame) : 0.070
    Stream size : 950 MiB (89%)
    Tagged date : UTC 2012-12-14 09:46:59

    Audio
    ID : 2
    Format : AAC
    Format/Info : Advanced Audio Codec
    Format profile : LC
    Codec ID : 40
    Duration : 1h 22mn
    Bit rate mode : Variable
    Bit rate : 192 Kbps
    Maximum bit rate : 202 Kbps
    Channel(s) : 2 channels
    Channel positions : Front: L R
    Sampling rate : 44.1 KHz
    Compression mode : Lossy
    Stream size : 113 MiB (11%)
    Title : IsoMedia File Produced by Google, 5-11-2011
    Encoded date : UTC 2012-12-14 09:46:20
    Tagged date : UTC 2012-12-14 09:46:59





    Nazwa pliku: Bobby Griffith (2009) [Lektor PL].mp4
    Rozmiar Pliku: 1,04 GB
    Rozmiar segmentu: 9,00 MB
    Liczba segmentów: 119
    Liczba mirrorów: 10

    Hasło: www.ufs.pl

    Masz problem z programem MoorHunt? Zajrzyj do działu Poradniki & FAQ tego programu.
    Zalecamy pobieranie za pomocą MailShare







    Przepraszamy, ale nie możesz zobaczyć tego tematu. Musisz sie Zarejestrować
    albo Zalogować

    Upload wykonany w MH 0.6.7.2
    Ostatnio edytowane przez jeep ; 01-11-2016 o 20:52
    Member -> Full Member -> UFS Trial -> UFS Uploader -> UFS Elite -> Moderator -> UFS Elite -> Super Vip -> Elite Kreator -> Elite Uploader -> Super Vip -> Elite Uploader -> Super Vip
    Intel Core i5 2500 3.3GHz
    SilentiumPC
    Asus H61
    Kingston HyperX 16GB DDR3 1600MHz
    Seagate 500GB
    Toshiba 320GB
    Seagate Desktop HDD 2TB
    GoodRam SSD 120GB
    Gigabyte GeForce 1060 6GB XTreme OC
    Nagrywarka Asus
    Thermaltake Modular SE 530W
    Zalman 3 Plus White



  2.    Sponsored Links




  3. #2
    Retired
     Info : 
    Dołączył
    Nov 2008
    Posty
    4,218
     Podziękowania : 
    Podziękował: 377
    Doceniono: 981 razy w 85 postach
     UFS Stats Uploady : 
    Filmy: 77.5
    Gry: 9
    Programy: 4
    TV's: 142
     Total Upload : 
    P2M UP: 812.8 GB
    Diller81 jest nieaktywny

    Domyślnie

    Ostatnio edytowane przez Diller81 ; 10-01-2013 o 14:32

Informacje o wątku

Użytkownicy przeglądający ten wątek

Aktualnie 1 użytkownik(ów) przegląda ten wątek. (0 zarejestrowany(ch) oraz 1 gości)

Podobne wątki

  1. 1GB Zombieland [2009][WEBRip][720p][LEK-PL]
    Przez Stachu w dziale Filmy High Definition [Dział od rangi Full Member]
    Odpowiedzi: 1
    Ostatni post / autor: 10-01-2013, 08:26
  2. 0.7GB Prayers for Bobby [2009][DVDRip][ENG]
    Przez depciak w dziale HQ (High Quality - Wysoka Jakość)
    Odpowiedzi: 1
    Ostatni post / autor: 02-01-2010, 15:57
  3. 0.7GB Bringing Up Bobby [2009] [DVDRip] [ENG]
    Przez JankieL w dziale HQ (High Quality - Wysoka Jakość)
    Odpowiedzi: 1
    Ostatni post / autor: 27-05-2009, 16:18

Uprawnienia umieszczania postów

  • Nie możesz zakładać nowych tematów
  • Nie możesz pisać wiadomości
  • Nie możesz dodawać załączników
  • Nie możesz edytować swoich postów
  •