Aktualizacje seriali
 



Ogłoszenia
UFS - dotacje
Dotacje SMS
Jak korzystać z forumowej szukajki



Pokaż wyniki od 1 do 2 z 2

Wątek: Błękitna Laguna [1980][WEBRip][720p][LEK-PL]

  1. #1
    Gdzie są pieniądze za las?! Awatar Stachu
     Info : 
    Dołączył
    Oct 2007
    Skąd
    Köln
    Posty
    9,414
     Podziękowania : 
    Podziękował: 243
    Doceniono: 37,494 razy w 1,148 postach
     UFS Stats Uploady : 
    Filmy: 892
    Gry: 597
    Programy: 14
    TV's: 297
    Muzyka: 87
    Porno: 69
    Inne: 66
    Małe uploady: 12
     UFS Stats Konta : 
    Gmail: 205
    Inne: 648
     Total Upload : 
    P2M UP: 8184.15 GB
     Total CA : 
    Total CA: 14861 AC
     Total HTTP Upload : 
    HTTP UP: 0.7 GB
    Stachu jest nieaktywny

    mh Błękitna Laguna [1980][WEBRip][720p][LEK-PL]

    Błękitna laguna
    The Blue Lagoon




    Produkcja: USA
    Data Premiery: 1980-06-20 (świat), 2001-07-16 (dvd)
    Reżyseria: Randal Kleiser
    Scenariusz: Douglas Day Stewart, Henry De Vere Stacpoole (powieść)
    Czas trwania: 104 minut
    Dystrybucja:
    Gatunek: Dramat | Przygodowy | Romans
    Ocena: 7.1



    Na morzu południowym tonie w wyniku pożaru angielski żaglowiec. Paddy Button, stary kucharz, zabiera do łodzi ratunkowej dwoje dzieci. Są to 8-letni Richard i kuzynka Emmeline, jego rówieśnica. Docierają do malowniczej, bezludnej wyspy, która staje się ich schronieniem. Gdy przemija radość z ocalenia, okazuje się, że ten raj kryje w sobie także niebezpieczeństwa. Paddy zabrania dzieciom przechodzić na drugą stronę wyspy. Cała trójka dość szybko zadomawia się w nowym środowisku. Pewnego dnia Paddy znajduje beczkę z rumem, której zawartość prowadzi do tragedii. Stary kucharz topi się w morzu. Od tego momentu chłopiec i dziewczynka zdani są tylko na siebie.



    Brooke Shields
    Emmeline


    Christopher Atkins
    Richard

    Leo McKern
    Paddy Button

    William Daniels
    Arthur Lestrange

    Elva Josephson
    Young Emmeline

    Glenn Kohan
    Young Richard

    Alan Hopgood
    Captain

    Gus Mercurio
    Officer









    Video
    ID : 1
    Format : AVC
    Format/Info : Advanced Video Codec
    Format profile : High@L3.1
    Format settings, CABAC : Yes
    Format settings, ReFrames : 1 frame
    Format settings, GOP : M=1, N=60
    Codec ID : avc1
    Codec ID/Info : Advanced Video Coding
    Duration : 1h 40mn
    Bit rate : 2 256 Kbps
    Maximum bit rate : 9 908 Kbps
    Width : 1 280 pixels
    Height : 720 pixels
    Display aspect ratio : 16:9
    Frame rate mode : Constant
    Frame rate : 25.000 fps
    Color space : YUV
    Chroma subsampling : 4:2:0
    Bit depth : 8 bits
    Scan type : Progressive
    Bits/(Pixel*Frame) : 0.098
    Stream size : 1.58 GiB (92%)
    Tagged date : UTC 2013-01-04 04:32:53

    Audio
    ID : 2
    Format : AAC
    Format/Info : Advanced Audio Codec
    Format profile : LC
    Codec ID : 40
    Duration : 1h 40mn
    Bit rate mode : Variable
    Bit rate : 192 Kbps
    Maximum bit rate : 202 Kbps
    Channel(s) : 2 channels
    Channel positions : Front: L R
    Sampling rate : 44.1 KHz
    Compression mode : Lossy
    Stream size : 138 MiB (8%)
    Title : IsoMedia File Produced by Google, 5-11-2011
    Encoded date : UTC 2013-01-04 04:32:04
    Tagged date : UTC 2013-01-04 04:32:53




    Nazwa pliku: Blekitna Laguna [Lektor PL.mp4
    Rozmiar Pliku: 1,72 GB
    Rozmiar segmentu: 9,00 MB
    Liczba segmentów: 196
    Liczba mirrorów: 10

    Hasło: www.ufs.pl

    Masz problem z programem MoorHunt? Zajrzyj do działu Poradniki & FAQ tego programu.
    Zalecamy pobieranie za pomocą MailShare







    Przepraszamy, ale nie możesz zobaczyć tego tematu. Musisz sie Zarejestrować
    albo Zalogować

    Upload wykonany w MH 0.6.7.2
    Ostatnio edytowane przez jeep ; 01-11-2016 o 20:10
    Member -> Full Member -> UFS Trial -> UFS Uploader -> UFS Elite -> Moderator -> UFS Elite -> Super Vip -> Elite Kreator -> Elite Uploader -> Super Vip -> Elite Uploader -> Super Vip
    Intel Core i5 2500 3.3GHz
    SilentiumPC
    Asus H61
    Kingston HyperX 16GB DDR3 1600MHz
    Seagate 500GB
    Toshiba 320GB
    Seagate Desktop HDD 2TB
    GoodRam SSD 120GB
    Gigabyte GeForce 1060 6GB XTreme OC
    Nagrywarka Asus
    Thermaltake Modular SE 530W
    Zalman 3 Plus White



  2.    Sponsored Links




  3. #2
    Retired
     Info : 
    Dołączył
    Nov 2008
    Posty
    4,218
     Podziękowania : 
    Podziękował: 377
    Doceniono: 981 razy w 85 postach
     UFS Stats Uploady : 
    Filmy: 77.5
    Gry: 9
    Programy: 4
    TV's: 142
     Total Upload : 
    P2M UP: 812.8 GB
    Diller81 jest nieaktywny

    Domyślnie

    Ostatnio edytowane przez Diller81 ; 10-01-2013 o 08:34

Informacje o wątku

Użytkownicy przeglądający ten wątek

Aktualnie 1 użytkownik(ów) przegląda ten wątek. (0 zarejestrowany(ch) oraz 1 gości)

Podobne wątki

  1. 0.1GB Sam Naprawiam Samochód: Renault Laguna 94'-97' [EBOOK][PDF][PL]
    Przez kejo w dziale E-Booki [Książki - PL]
    Odpowiedzi: 1
    Ostatni post / autor: 26-02-2011, 16:18

Uprawnienia umieszczania postów

  • Nie możesz zakładać nowych tematów
  • Nie możesz pisać wiadomości
  • Nie możesz dodawać załączników
  • Nie możesz edytować swoich postów
  •