Aktualizacje seriali
 



Ogłoszenia
UFS - dotacje
Dotacje SMS
Jak korzystać z forumowej szukajki



Pokaż wyniki od 1 do 2 z 2

Wątek: Transamerica [2005][WEBRip][720p][LEK-PL]

  1. #1
    Gdzie są pieniądze za las?! Awatar Stachu
     Info : 
    Dołączył
    Oct 2007
    Skąd
    Köln
    Posty
    9,414
     Podziękowania : 
    Podziękował: 243
    Doceniono: 37,523 razy w 1,149 postach
     UFS Stats Uploady : 
    Filmy: 892
    Gry: 597
    Programy: 14
    TV's: 297
    Muzyka: 87
    Porno: 69
    Inne: 66
    Małe uploady: 12
     UFS Stats Konta : 
    Gmail: 205
    Inne: 648
     Total Upload : 
    P2M UP: 8184.15 GB
     Total CA : 
    Total CA: 14861 AC
     Total HTTP Upload : 
    HTTP UP: 0.7 GB
    Stachu jest nieaktywny

    mh Transamerica [2005][WEBRip][720p][LEK-PL]

    Transamerica



    Gatunek: Dramat
    Produkcja: USA
    Premiera: 14 lutego 2005 (świat) 2005-02-14
    Reżyseria: Duncan Tucker
    Scenariusz: Duncan Tucker
    Ocena: 7,6 / 10
    Muzyka: David Mansfield
    Zdjęcia: Stephen Kazmierski
    Dystrybucja: Kino Świat



    Na początku Bree umywa ręce od odpowiedzialności, jednak terapeuta przekonuje go, aby stawił czoło wyzwaniu dodając, że nie zgodzi się na operacje, jeśli się z chłopakiem nie spotka. Leci więc do Nowego Yorku i wyciąga Toby'ego z więzienia. Chłopak zostaje mu przekazany bez żadnych pytań, a Toby myśli, że Bree to jakaś misjonarka, która ma za zadanie nawrócić go na wiarę. Chłopak nie zamierza jednak z nią tracić czasu i zamierza jechać do Los Angeles, aby szukać ojca. Bree wpada w panikę. Nie ma oczywiście zamiaru mówić mu prawdy, a jedynie proponuje wspólną przejażdżkę po zachodnim wybrzeżu, cicho planując zostawić go gdzieś na pustkowiu. Toby się zgadza. I tak ta dziwna para - każdy chcąc przechytrzyć drugiego - wyrusza w podróż przez cały kontynent. Przez Amerykę...



    Bree - Felicity Huffman
    Toby - Kevin Zegers
    Elizabeth - Fionnula Flanagan
    Margaret - Elizabeth Peña
    Calvin - Graham Greene
    Murray - Burt Young
    Sydney - Carrie Preston
    Arletty - Venida Evans









    Video
    ID : 1
    Format : AVC
    Format/Info : Advanced Video Codec
    Format profile : High@L3.1
    Format settings, CABAC : Yes
    Format settings, ReFrames : 1 frame
    Codec ID : avc1
    Codec ID/Info : Advanced Video Coding
    Duration : 1h 34mn
    Bit rate : 1 632 Kbps
    Maximum bit rate : 5 902 Kbps
    Width : 1 280 pixels
    Height : 696 pixels
    Display aspect ratio : 1.85:1
    Frame rate mode : Constant
    Frame rate : 25.000 fps
    Color space : YUV
    Chroma subsampling : 4:2:0
    Bit depth : 8 bits
    Scan type : Progressive
    Bits/(Pixel*Frame) : 0.073
    Stream size : 1.08 GiB (89%)
    Tagged date : UTC 2012-12-14 02:12:57

    Audio
    ID : 2
    Format : AAC
    Format/Info : Advanced Audio Codec
    Format profile : LC
    Codec ID : 40
    Duration : 1h 34mn
    Bit rate mode : Variable
    Bit rate : 192 Kbps
    Maximum bit rate : 202 Kbps
    Channel(s) : 2 channels
    Channel positions : Front: L R
    Sampling rate : 44.1 KHz
    Compression mode : Lossy
    Stream size : 130 MiB (11%)
    Title : IsoMedia File Produced by Google, 5-11-2011
    Encoded date : UTC 2012-12-14 02:12:25
    Tagged date : UTC 2012-12-14 02:12:57





    Nazwa pliku: Transameryka.mp4
    Rozmiar Pliku: 1,21 GB
    Rozmiar segmentu: 9,00 MB
    Liczba segmentów: 138
    Liczba mirrorów: 10

    Hasło: www.ufs.pl

    Masz problem z programem MoorHunt? Zajrzyj do działu Poradniki & FAQ tego programu.
    Zalecamy pobieranie za pomocą MailShare







    Przepraszamy, ale nie możesz zobaczyć tego tematu. Musisz sie Zarejestrować
    albo Zalogować

    Upload wykonany w MH 0.6.7.2
    Ostatnio edytowane przez jeep ; 01-11-2016 o 20:03
    Member -> Full Member -> UFS Trial -> UFS Uploader -> UFS Elite -> Moderator -> UFS Elite -> Super Vip -> Elite Kreator -> Elite Uploader -> Super Vip -> Elite Uploader -> Super Vip
    Intel Core i5 2500 3.3GHz
    SilentiumPC
    Asus H61
    Kingston HyperX 16GB DDR3 1600MHz
    Seagate 500GB
    Toshiba 320GB
    Seagate Desktop HDD 2TB
    GoodRam SSD 120GB
    Gigabyte GeForce 1060 6GB XTreme OC
    Nagrywarka Asus
    Thermaltake Modular SE 530W
    Zalman 3 Plus White



  2.    Sponsored Links




  3. #2
    Retired
     Info : 
    Dołączył
    Nov 2008
    Posty
    4,218
     Podziękowania : 
    Podziękował: 377
    Doceniono: 981 razy w 85 postach
     UFS Stats Uploady : 
    Filmy: 77.5
    Gry: 9
    Programy: 4
    TV's: 142
     Total Upload : 
    P2M UP: 812.8 GB
    Diller81 jest nieaktywny

    Domyślnie

    Ostatnio edytowane przez Diller81 ; 10-01-2013 o 08:41

Informacje o wątku

Użytkownicy przeglądający ten wątek

Aktualnie 1 użytkownik(ów) przegląda ten wątek. (0 zarejestrowany(ch) oraz 1 gości)

Podobne wątki

  1. 1.4GB Pan Życia i Śmierci [2005][WEBRip][720p][LEK-PL]
    Przez Stachu w dziale Filmy High Definition [Dział od rangi Full Member]
    Odpowiedzi: 1
    Ostatni post / autor: 09-01-2013, 10:02
  2. Dwóch i pół[SEZON 3] [2005][WEBRip][LEK-PL]
    Przez ferr w dziale Pełne Sezony [Dział od rangi Full Member]
    Odpowiedzi: 1
    Ostatni post / autor: 03-11-2012, 13:29
  3. Transamerica [2002][DVDRip][US]
    Przez nj_ w dziale HQ (High Quality - Wysoka Jakość)
    Odpowiedzi: 2
    Ostatni post / autor: 11-05-2009, 22:07

Uprawnienia umieszczania postów

  • Nie możesz zakładać nowych tematów
  • Nie możesz pisać wiadomości
  • Nie możesz dodawać załączników
  • Nie możesz edytować swoich postów
  •