Aktualizacje seriali
 



Ogłoszenia
UFS - dotacje
Dotacje SMS
Jak korzystać z forumowej szukajki



Pokaż wyniki od 1 do 2 z 2

Wątek: Pan Życia i Śmierci [2005][WEBRip][720p][LEK-PL]

  1. #1
    Gdzie są pieniądze za las?! Awatar Stachu
     Info : 
    Dołączył
    Oct 2007
    Skąd
    Köln
    Posty
    9,414
     Podziękowania : 
    Podziękował: 243
    Doceniono: 37,523 razy w 1,149 postach
     UFS Stats Uploady : 
    Filmy: 892
    Gry: 597
    Programy: 14
    TV's: 297
    Muzyka: 87
    Porno: 69
    Inne: 66
    Małe uploady: 12
     UFS Stats Konta : 
    Gmail: 205
    Inne: 648
     Total Upload : 
    P2M UP: 8184.15 GB
     Total CA : 
    Total CA: 14861 AC
     Total HTTP Upload : 
    HTTP UP: 0.7 GB
    Stachu jest nieaktywny

    mh Pan Życia i Śmierci [2005][WEBRip][720p][LEK-PL]

    Pan życia i śmierci
    Lord of War




    Gatunek: Dramat
    Produkcja: Francja, Niemcy, USA
    Premiera: 4 listopada 2005 (Polska) 2005-11-04, 16 września 2005 (świat) 2005-09-16
    Reżyseria: Andrew Niccol
    Scenariusz: Andrew Niccol
    Ocena: 7,6 / 10
    Muzyka: Antonio Pinto
    Zdjęcia: Amir M. Mokri
    Dystrybucja: Monolith



    Do broni chłopcy, do broni! Niebezpieczny, egoistyczny i niezwykle przebiegły ukraiński emigrant stawia sobie za życiowy cel uzbrojenie każdego, nawet najbiedniejszego, obywatela naszego globu. Zadanie to, już z samego założenia, nie jest łatwe, tym bardziej, że inni już większą część roboty za Ciebie wykonali... Scenariusz nowego filmu Andrew Niccoli ("The Truman Show", "Terminal") jest zlepkiem historii opartych na autentycznych wydarzeniach z życia pięciu handlarzy bronią. Główny bohater, Yuri Orlov (Nicolas Cage), mieszka w Stanach.



    Yuri Orlov - Nicolas Cage
    Ava Fontaine Orlov - Bridget Moynahan
    Vitaly Orlov - Jared Leto
    Irina Orlov - Shake Tukhmanyan
    Anatoly Orlov - Jean-Pierre Nshanian
    Gregor - Jasper Lenz
    Boris - Kobus Marx
    Liev - Stephan De Abreu









    Video
    ID : 1
    Format : AVC
    Format/Info : Advanced Video Codec
    Format profile : High@L3.1
    Format settings, CABAC : Yes
    Format settings, ReFrames : 1 frame
    Codec ID : avc1
    Codec ID/Info : Advanced Video Coding
    Duration : 2h 1mn
    Bit rate : 1 439 Kbps
    Maximum bit rate : 8 359 Kbps
    Width : 1 280 pixels
    Height : 532 pixels
    Display aspect ratio : 2.40:1
    Frame rate mode : Constant
    Frame rate : 23.976 fps
    Color space : YUV
    Chroma subsampling : 4:2:0
    Bit depth : 8 bits
    Scan type : Progressive
    Bits/(Pixel*Frame) : 0.088
    Stream size : 1.22 GiB (88%)
    Tagged date : UTC 2012-11-10 23:54:23

    Audio
    ID : 2
    Format : AAC
    Format/Info : Advanced Audio Codec
    Format profile : LC
    Codec ID : 40
    Duration : 2h 1mn
    Bit rate mode : Variable
    Bit rate : 192 Kbps
    Maximum bit rate : 202 Kbps
    Channel(s) : 2 channels
    Channel positions : Front: L R
    Sampling rate : 44.1 KHz
    Compression mode : Lossy
    Stream size : 167 MiB (12%)
    Title : IsoMedia File Produced by Google, 5-11-2011
    Encoded date : UTC 2012-11-10 23:53:39
    Tagged date : UTC 2012-11-10 23:54:23





    Nazwa pliku: Pan zycia i smierci _ Lord of War 2005 caly film PL HD.mp4
    Rozmiar Pliku: 1,39 GB
    Rozmiar segmentu: 9,00 MB
    Liczba segmentów: 159
    Liczba mirrorów: 10

    Hasło: www.ufs.pl

    Masz problem z programem MoorHunt? Zajrzyj do działu Poradniki & FAQ tego programu.
    Zalecamy pobieranie za pomocą MailShare







    Przepraszamy, ale nie możesz zobaczyć tego tematu. Musisz sie Zarejestrować
    albo Zalogować

    Upload wykonany w MH 0.6.7.2
    Ostatnio edytowane przez jeep ; 01-11-2016 o 20:01
    Member -> Full Member -> UFS Trial -> UFS Uploader -> UFS Elite -> Moderator -> UFS Elite -> Super Vip -> Elite Kreator -> Elite Uploader -> Super Vip -> Elite Uploader -> Super Vip
    Intel Core i5 2500 3.3GHz
    SilentiumPC
    Asus H61
    Kingston HyperX 16GB DDR3 1600MHz
    Seagate 500GB
    Toshiba 320GB
    Seagate Desktop HDD 2TB
    GoodRam SSD 120GB
    Gigabyte GeForce 1060 6GB XTreme OC
    Nagrywarka Asus
    Thermaltake Modular SE 530W
    Zalman 3 Plus White



  2. Liczba osób które doceniły autora: 2


  3.    Sponsored Links




  4. #2
    Retired
     Info : 
    Dołączył
    Nov 2008
    Posty
    4,218
     Podziękowania : 
    Podziękował: 377
    Doceniono: 981 razy w 85 postach
     UFS Stats Uploady : 
    Filmy: 77.5
    Gry: 9
    Programy: 4
    TV's: 142
     Total Upload : 
    P2M UP: 812.8 GB
    Diller81 jest nieaktywny

    Domyślnie

    Ostatnio edytowane przez Diller81 ; 09-01-2013 o 10:09

Informacje o wątku

Użytkownicy przeglądający ten wątek

Aktualnie 1 użytkownik(ów) przegląda ten wątek. (0 zarejestrowany(ch) oraz 1 gości)

Podobne wątki

  1. Pan Życia i Śmierci [2005][DVDRip][ENG]
    Przez Stachu w dziale HQ (High Quality - Wysoka Jakość)
    Odpowiedzi: 3
    Ostatni post / autor: 20-10-2010, 20:48

Uprawnienia umieszczania postów

  • Nie możesz zakładać nowych tematów
  • Nie możesz pisać wiadomości
  • Nie możesz dodawać załączników
  • Nie możesz edytować swoich postów
  •