Aktualizacje seriali
 



Ogłoszenia
UFS - dotacje
Dotacje SMS
Jak korzystać z forumowej szukajki



Pokaż wyniki od 1 do 2 z 2

Wątek: Eurotrip [2004][WEBRip][720p][LEK-PL]

  1. #1
    Gdzie są pieniądze za las?! Awatar Stachu
     Info : 
    Dołączył
    Oct 2007
    Skąd
    Köln
    Posty
    9,414
     Podziękowania : 
    Podziękował: 243
    Doceniono: 37,518 razy w 1,148 postach
     UFS Stats Uploady : 
    Filmy: 892
    Gry: 597
    Programy: 14
    TV's: 297
    Muzyka: 87
    Porno: 69
    Inne: 66
    Małe uploady: 12
     UFS Stats Konta : 
    Gmail: 205
    Inne: 648
     Total Upload : 
    P2M UP: 8184.15 GB
     Total CA : 
    Total CA: 14861 AC
     Total HTTP Upload : 
    HTTP UP: 0.7 GB
    Stachu jest nieaktywny

    mh Eurotrip [2004][WEBRip][720p][LEK-PL]

    Eurotrip



    Gatunek: Komedia, Przygodowy
    Produkcja: USA
    Premiera: 20 lutego 2004 (świat) 2004-02-20
    Reżyseria: Alec Berg, David Mandel, Jeff Schaffer
    Scenariusz: Alec Berg, David Mandel, Jeff Schaffer
    Ocena: 7,1 / 10
    Muzyka: James L. Venable
    Zdjęcia: David Eggby
    Dystrybucja: United International Pictures Sp z o.o.



    Główny bohater, Scott Thomas, zostaje porzucony przez swoją dziewczynę tuż po zakończeniu roku szkolnego. W międzyczasie zauważa, iż między nim a jego przyjaciółką Miką, którą zna tylko z emailowych korespondencji, narodziło się specyficzne uczucie. Scott postanawia wyruszyć do Niemiec, by spotkać się z Miką. Głównym motywem filmu jest szalona podróż czwórki nastolatków -- bohatera i jego przyjaciół -- do Berlina. Jednak zanim grupka trafi do niemieckiej stolicy, zwiedza kilka europejskich państw. Kraje, które odwiedzają bohaterowie, to: Wielka Brytania, Francja, Holandia, Słowacja, Niemcy oraz Watykan.



    Cecil - Paul Oldham
    Mad Maynard - Vinnie Jones
    Mieke - Jessica Boehrs
    Sissy - Lenka Vomočilová
    Missy - Jakki Degg
    Scott Thomas - Scott Mechlowicz
    Cooper Harris - Jacob Pitts
    Fiona - Kristin Kreuk









    Video
    ID : 1
    Format : AVC
    Format/Info : Advanced Video Codec
    Format profile : High@L3.1
    Format settings, CABAC : Yes
    Format settings, ReFrames : 1 frame
    Codec ID : avc1
    Codec ID/Info : Advanced Video Coding
    Duration : 1h 25mn
    Bit rate : 1 907 Kbps
    Maximum bit rate : 7 515 Kbps
    Width : 1 280 pixels
    Height : 720 pixels
    Display aspect ratio : 16:9
    Frame rate mode : Constant
    Frame rate : 25.000 fps
    Color space : YUV
    Chroma subsampling : 4:2:0
    Bit depth : 8 bits
    Scan type : Progressive
    Bits/(Pixel*Frame) : 0.083
    Stream size : 1.14 GiB (91%)
    Tagged date : UTC 2012-12-13 10:44:01

    Audio
    ID : 2
    Format : AAC
    Format/Info : Advanced Audio Codec
    Format profile : LC
    Codec ID : 40
    Duration : 1h 25mn
    Bit rate mode : Variable
    Bit rate : 192 Kbps
    Maximum bit rate : 201 Kbps
    Channel(s) : 2 channels
    Channel positions : Front: L R
    Sampling rate : 44.1 KHz
    Compression mode : Lossy
    Stream size : 118 MiB (9%)
    Title : IsoMedia File Produced by Google, 5-11-2011
    Encoded date : UTC 2012-12-13 10:43:40
    Tagged date : UTC 2012-12-13 10:44:01





    Nazwa pliku: EuroTrip - 2004 - Lektor PL - HD.mp4
    Rozmiar Pliku: 1,26 GB
    Rozmiar segmentu: 9,00 MB
    Liczba segmentów: 143
    Liczba mirrorów: 8

    Hasło: www.ufs.pl

    Masz problem z programem MoorHunt? Zajrzyj do działu Poradniki & FAQ tego programu.
    Zalecamy pobieranie za pomocą MailShare







    Przepraszamy, ale nie możesz zobaczyć tego tematu. Musisz sie Zarejestrować
    albo Zalogować

    Upload wykonany w MH 0.6.7.2
    Ostatnio edytowane przez jeep ; 01-11-2016 o 19:27
    Member -> Full Member -> UFS Trial -> UFS Uploader -> UFS Elite -> Moderator -> UFS Elite -> Super Vip -> Elite Kreator -> Elite Uploader -> Super Vip -> Elite Uploader -> Super Vip
    Intel Core i5 2500 3.3GHz
    SilentiumPC
    Asus H61
    Kingston HyperX 16GB DDR3 1600MHz
    Seagate 500GB
    Toshiba 320GB
    Seagate Desktop HDD 2TB
    GoodRam SSD 120GB
    Gigabyte GeForce 1060 6GB XTreme OC
    Nagrywarka Asus
    Thermaltake Modular SE 530W
    Zalman 3 Plus White



  2. Liczba osób które doceniły autora: 6


  3.    Sponsored Links




  4. #2
    Retired
     Info : 
    Dołączył
    Nov 2008
    Posty
    4,218
     Podziękowania : 
    Podziękował: 377
    Doceniono: 981 razy w 85 postach
     UFS Stats Uploady : 
    Filmy: 77.5
    Gry: 9
    Programy: 4
    TV's: 142
     Total Upload : 
    P2M UP: 812.8 GB
    Diller81 jest nieaktywny

    Domyślnie


Informacje o wątku

Użytkownicy przeglądający ten wątek

Aktualnie 1 użytkownik(ów) przegląda ten wątek. (0 zarejestrowany(ch) oraz 1 gości)

Podobne wątki

  1. 1.2GB Letnia Burza [2004][WEBRip][720p][LEK-PL]
    Przez Stachu w dziale Filmy High Definition [Dział od rangi Full Member]
    Odpowiedzi: 1
    Ostatni post / autor: 11-01-2013, 08:01
  2. 0.7GB Eurotrip [2004][DVDRip][ENG]
    Przez NightOver w dziale HQ (High Quality - Wysoka Jakość)
    Odpowiedzi: 2
    Ostatni post / autor: 02-11-2010, 19:21
  3. 0.7GB Eurotrip [2004][DVDRip][ENG]
    Przez Stachu w dziale HQ (High Quality - Wysoka Jakość)
    Odpowiedzi: 1
    Ostatni post / autor: 01-02-2010, 14:24

Uprawnienia umieszczania postów

  • Nie możesz zakładać nowych tematów
  • Nie możesz pisać wiadomości
  • Nie możesz dodawać załączników
  • Nie możesz edytować swoich postów
  •