Aktualizacje seriali
 



Ogłoszenia
UFS - dotacje
Dotacje SMS
Jak korzystać z forumowej szukajki



Pokaż wyniki od 1 do 2 z 2

Wątek: Lincoln [2012][DVDScr][AC3][ENG]

  1. #1
    Impeccable Awatar Kingpin
     Info : 
    Dołączył
    May 2008
    Skąd
    Paris XVII arr
    Posty
    5,331
     Podziękowania : 
    Podziękował: 1,494
    Doceniono: 60,467 razy w 527 postach
     UFS Stats Uploady : 
    Filmy: 607
    Gry: 211
    Programy: 19
    TV's: 22
    Muzyka: 2
    Porno: 12
    Inne: 2
     UFS Stats Konta : 
    Gmail: 20
    Inne: 75
     Total Upload : 
    P2M UP: 3523.05 GB
     Total CA : 
    Total CA: 2080 AC
    Kingpin jest nieaktywny

    mh Lincoln [2012][DVDScr][AC3][ENG]

    Lincoln



    Gatunek: Biograficzny, Dramat historyczny
    Produkcja: Indie, USA
    Premiera: 1 lutego 2013 (Polska) 2013-02-01, 8 października 2012 (świat) 2012-10-08
    Reżyseria: Steven Spielberg
    Scenariusz: Tony Kushner
    Ocena: 7,8 / 10
    Muzyka: John Williams
    Zdjęcia: Janusz Kamiński
    Dystrybucja: Imperial - Cinepix



    Film opowiada o burzliwym życiu prezydenta Stanów Zjednoczonych - Abrahama Lincolna.



    Abraham Lincoln - Daniel Day-Lewis
    Mary Todd Lincoln - Sally Field
    Thaddeus Stevens - Tommy Lee Jones
    William Seward - David Strathairn
    Robert Lincoln - Joseph Gordon-Levitt
    W.N. Bilbo - James Spader
    Preston Blair - Hal Holbrook
    Ulysses S. Grant - Jared Harris







    General
    Complete name : C:\Users\root\Desktop\Lincoln.2012.DVDSCR.XViD.AC3-FooKaS\Lincoln.2012.DVDSCR.XViD.AC3-FooKaS.avi
    Format : AVI
    Format/Info : Audio Video Interleave
    Format profile : OpenDML
    File size : 2.55 GiB
    Duration : 2h 29mn
    Overall bit rate : 2 438 Kbps
    Writing library : VirtualDub build 32842/release

    Video
    ID : 0
    Format : MPEG-4 Visual
    Format profile : Advanced Simple@L5
    Format settings, BVOP : 2
    Format settings, QPel : No
    Format settings, GMC : No warppoints
    Format settings, Matrix : Default (H.263)
    Muxing mode : Packed bitstream
    Codec ID : XVID
    Codec ID/Hint : XviD
    Duration : 2h 29mn
    Bit rate : 2 171 Kbps
    Width : 720 pixels
    Height : 304 pixels
    Display aspect ratio : 2.35:1
    Frame rate : 23.976 fps
    Color space : YUV
    Chroma subsampling : 4:2:0
    Bit depth : 8 bits
    Scan type : Progressive
    Compression mode : Lossy
    Bits/(Pixel*Frame) : 0.414
    Stream size : 2.27 GiB (89%)
    Writing library : XviD 64

    Audio
    ID : 1
    Format : AC-3
    Format/Info : Audio Coding 3
    Mode extension : CM (complete main)
    Codec ID : 2000
    Duration : 2h 29mn
    Bit rate mode : Constant
    Bit rate : 256 Kbps
    Channel(s) : 6 channels
    Channel positions : Front: L C R, Side: L R, LFE
    Sampling rate : 48.0 KHz
    Bit depth : 16 bits
    Compression mode : Lossy
    Stream size : 274 MiB (10%)
    Alignment : Aligned on interleaves
    Interleave, duration : 42 ms (1.00 video frame)



    Nazwa pliku: Lincoln.2012.DVDSCR.XViD.AC3-FooKaS.avi
    Ilość segmentów na koncie: 291
    Rozmiar segmentu: 9 MB
    Wielkość uploadu: 2.55 GB
    Ilość mirrorów: 10
    Hasło: www.ufs.pl

    Masz problem z programem MoorHunt? Zajrzyj do działu Poradniki & FAQ tego programu.
    Zalecamy pobieranie za pomocą MailShare







    Przepraszamy, ale nie możesz zobaczyć tego tematu. Musisz sie Zarejestrować
    albo Zalogować

    Upload wykonany w MH 0.6.7.2


    מֶלֶך


  2.    Sponsored Links




  3. #2
    Retired
     Info : 
    Dołączył
    Nov 2008
    Posty
    4,218
     Podziękowania : 
    Podziękował: 377
    Doceniono: 981 razy w 85 postach
     UFS Stats Uploady : 
    Filmy: 77.5
    Gry: 9
    Programy: 4
    TV's: 142
     Total Upload : 
    P2M UP: 812.8 GB
    Diller81 jest nieaktywny

    Domyślnie

    Ostatnio edytowane przez Diller81 ; 26-12-2012 o 20:05

Informacje o wątku

Użytkownicy przeglądający ten wątek

Aktualnie 1 użytkownik(ów) przegląda ten wątek. (0 zarejestrowany(ch) oraz 1 gości)

Podobne wątki

  1. 0.7GB Lincoln [2012][DVDScr][ENG][Napisy PL]
    Przez akira5 w dziale HQ (High Quality - Wysoka Jakość)
    Odpowiedzi: 3
    Ostatni post / autor: 25-06-2013, 19:11

Uprawnienia umieszczania postów

  • Nie możesz zakładać nowych tematów
  • Nie możesz pisać wiadomości
  • Nie możesz dodawać załączników
  • Nie możesz edytować swoich postów
  •