Aktualizacje seriali
 



Ogłoszenia
UFS - dotacje
Dotacje SMS
Jak korzystać z forumowej szukajki



Pokaż wyniki od 1 do 4 z 4

Wątek: Taken 2 [2012][DVDRip][AC3][ENG]

  1. #1
    Impeccable Awatar Kingpin
     Info : 
    Dołączył
    May 2008
    Skąd
    Paris XVII arr
    Posty
    5,324
     Podziękowania : 
    Podziękował: 1,487
    Doceniono: 60,433 razy w 526 postach
     UFS Stats Uploady : 
    Filmy: 607
    Gry: 211
    Programy: 19
    TV's: 22
    Muzyka: 2
    Porno: 12
    Inne: 2
     UFS Stats Konta : 
    Gmail: 20
    Inne: 75
     Total Upload : 
    P2M UP: 3523.05 GB
     Total CA : 
    Total CA: 2080 AC
    Kingpin jest nieaktywny

    mh Taken 2 [2012][DVDRip][AC3][ENG]

    Uprowadzona 2
    Taken 2




    Gatunek: Sensacyjny
    Produkcja: Francja
    Premiera: 5 października 2012 (Polska) 2012-10-05, 7 września 2012 (świat) 2012-09-07
    Reżyseria: Olivier Megaton
    Scenariusz: Luc Besson, Robert Mark Kamen
    Ocena: 6,8 / 10
    Muzyka: Nathaniel Méchaly
    Zdjęcia: Romain Lacourbas
    Dystrybucja: Monolith Films



    Po odzyskaniu córki z rąk albańskich porywaczy, Bryan Mills, były agent CIA, myślał, że to już koniec jego kłopotów. Nic bardziej mylnego. Ojciec jednego ze zgładzonych przez Bryana bałkańskich zbirów poprzysiągł zemstę i nie cofnie się przed niczym, aby dopiąć swego. Podczas rodzinnych wakacji w Istambule, Bryan wraz z żoną zostają porwani. Na wolności pozostaje jednak ich córka Kim, która pomoże ojcu wydostać się z niewoli. Teraz Bryan będzie musiał znów użyć wszystkich swych morderczych umiejętności, by ocalić żonę. Czasu pozostało niewiele. Dla porywaczy nie będzie litości.




    Bryan Mills - Liam Neeson
    Kim - Maggie Grace
    Lenore - Famke Janssen
    Sam - Leland Orser
    Casey - Jon Gries
    Bernie - D.B. Sweeney
    Jamie - Luke Grimes
    Murad Krasniqi - Rade Šerbedžija








    Source -- retail ( HS )



    File size : 1.36 GiB
    Duration : 1h 32mn
    Overall bit rate : 2 095 Kbps

    Video
    ID : 0

    Codec ID : XVID
    Codec ID/Hint : XviD
    Duration : 1h 32mn
    Bit rate : 1 704 Kbps
    Width : 720 pixels
    Height : 304 pixels
    Display aspect ratio : 2.35:1
    Frame rate : 23.976 fps
    Color space : YUV
    Chroma subsampling : 4:2:0
    Bit depth : 8 bits
    Scan type : Progressive
    Compression mode : Lossy
    Bits/(Pixel*Frame) : 0.325
    Stream size : 1.10 GiB (81%)
    Writing library : XviD 64

    Audio
    ID : 1
    Format : AC-3
    Format/Info : Audio Coding 3
    Mode extension : CM (complete main)
    Format settings, Endianness : Big
    Codec ID : 2000
    Duration : 1h 32mn
    Bit rate mode : Constant
    Bit rate : 384 Kbps
    Channel(s) : 6 channels
    Channel positions : Front: L C R, Side: L R, LFE
    Sampling rate : 44.1 KHz
    Bit depth : 16 bits
    Compression mode : Lossy
    Stream size : 253 MiB (18%)



    Nazwa pliku: Taken.2.2012.DVDRIP.XVID.AC3.5.1.HS.avi
    Ilość segmentów na koncie: 155
    Rozmiar segmentu: 9 MB
    Wielkość uploadu: 1.36 GB
    Ilość mirrorów: 10
    Hasło: www.ufs.pl

    Masz problem z programem MoorHunt? Zajrzyj do działu Poradniki & FAQ tego programu.
    Zalecamy pobieranie za pomocą MailShare







    Przepraszamy, ale nie możesz zobaczyć tego tematu. Musisz sie Zarejestrować
    albo Zalogować

    Upload wykonany w MH 0.6.7.2


    מֶלֶך


  2.    Sponsored Links




  3. #2
    Retired
     Info : 
    Dołączył
    Nov 2008
    Posty
    4,218
     Podziękowania : 
    Podziękował: 377
    Doceniono: 981 razy w 85 postach
     UFS Stats Uploady : 
    Filmy: 77.5
    Gry: 9
    Programy: 4
    TV's: 142
     Total Upload : 
    P2M UP: 812.8 GB
    Diller81 jest nieaktywny

    Domyślnie

    Ostatnio edytowane przez Diller81 ; 20-12-2012 o 11:36

  4. #3
    Full Member Awatar nurr2525
     Info : 
    Dołączył
    Mar 2009
    Skąd
    New Yersey
    Posty
    36
     Podziękowania : 
    Podziękował: 14
    Doceniono: 0 razy w 0 postach
    nurr2525 jest nieaktywny

    Domyślnie

    w ogole nawet nie pociągnie kilka procent tak skaczą skrzynki z zielonego koloru na niebieski :(

  5. #4
    Full Member
     Info : 
    Dołączył
    Aug 2008
    Skąd
    Rzeszów
    Posty
    292
     Podziękowania : 
    Podziękował: 241
    Doceniono: 0 razy w 0 postach
    Kacper16 jest nieaktywny

    Domyślnie

    dzięki wielkie. jest mankament na ok 10 minut przed koncem ale da sie przezyc :)

Informacje o wątku

Użytkownicy przeglądający ten wątek

Aktualnie 1 użytkownik(ów) przegląda ten wątek. (0 zarejestrowany(ch) oraz 1 gości)

Uprawnienia umieszczania postów

  • Nie możesz zakładać nowych tematów
  • Nie możesz pisać wiadomości
  • Nie możesz dodawać załączników
  • Nie możesz edytować swoich postów
  •