Aktualizacje seriali
 



Ogłoszenia
UFS - dotacje
Dotacje SMS
Jak korzystać z forumowej szukajki



Pokaż wyniki od 1 do 4 z 4

Wątek: Bumer: Film Vtoroy [2006][DVDRip][RUS][Napisy PL]

  1. #1
    Gdzie są pieniądze za las?! Awatar Stachu
     Info : 
    Dołączył
    Oct 2007
    Skąd
    Köln
    Posty
    9,414
     Podziękowania : 
    Podziękował: 243
    Doceniono: 37,497 razy w 1,148 postach
     UFS Stats Uploady : 
    Filmy: 892
    Gry: 597
    Programy: 14
    TV's: 297
    Muzyka: 87
    Porno: 69
    Inne: 66
    Małe uploady: 12
     UFS Stats Konta : 
    Gmail: 205
    Inne: 648
     Total Upload : 
    P2M UP: 8184.15 GB
     Total CA : 
    Total CA: 14861 AC
     Total HTTP Upload : 
    HTTP UP: 0.7 GB
    Stachu jest nieaktywny

    mh Bumer: Film Vtoroy [2006][DVDRip][RUS][Napisy PL]

    Bumer: Film vtoroy



    Gatunek: Dramat, Kryminał
    Produkcja: Rosja
    Premiera: 7 marca 2006 (świat) 2006-03-07
    Reżyseria: Pyotr Buslov
    Scenariusz: Pyotr Buslov, Denis Rodimin, Iwan Wyrypajew, Kim Belov
    Ocena: 7,3 / 10
    Muzyka: Sergey Shnurov
    Zdjęcia: Aleksandr Simonov



    Akcja drugiej części filmu rozgrywa się kilka lat po wydarzeniach ukazanych w "Beemie".
    Kostyan "Kot", który stracił wszystkich kolegów oraz swoją ukochaną, a także sam był bliski śmierci, próbuje zacząć nowe, uczciwe życie. Czy mu się to uda i czy ucieknie przed swoją przeszłością?



    Kostyan 'The Cat' - Vladimir Vdovichenkov
    Dimon 'The Scalded' - Nikolay Olyalin
    Dashka - Svetlana Ustinova
    Kola - Yuri Kolokolnikov
    Wujek Misza - Feliks Antipov
    Ojciec Oksany - Aleksandr Tsurkan









    Video
    ID : 0
    Format : MPEG-4 Visual
    Format profile : Advanced Simple@L5
    Format settings, BVOP : 1
    Format settings, QPel : No
    Format settings, GMC : No warppoints
    Format settings, Matrix : Custom
    Codec ID : XVID
    Codec ID/Hint : XviD
    Duration : 1h 50mn
    Bit rate : 702 Kbps
    Width : 576 pixels
    Height : 320 pixels
    Display aspect ratio : 16:9
    Frame rate : 25.000 fps
    Color space : YUV
    Chroma subsampling : 4:2:0
    Bit depth : 8 bits
    Scan type : Progressive
    Compression mode : Lossy
    Bits/(Pixel*Frame) : 0.152
    Stream size : 556 MiB (79%)
    Writing library : XviD 1.2.0SMP (UTC 2006-01-08)

    Audio
    ID : 1
    Format : MPEG Audio
    Format version : Version 1
    Format profile : Layer 3
    Mode : Joint stereo
    Mode extension : MS Stereo
    Codec ID : 55
    Codec ID/Hint : MP3
    Duration : 1h 50mn
    Bit rate mode : Variable
    Bit rate : 174 Kbps
    Nominal bit rate : 192 Kbps
    Channel(s) : 2 channels
    Sampling rate : 48.0 KHz
    Compression mode : Lossy
    Stream size : 138 MiB (20%)
    Alignment : Aligned on interleaves
    Interleave, duration : 24 ms (0.60 video frame)
    Interleave, preload duration : 105 ms
    Writing library : LAME3.97b
    Encoding settings : -m j -V 4 -q 2 -lowpass 18.6 --abr 192
    Language : Russian




    Nazwa pliku: Bumer Film vtoroy 2006 DVDRip XviD RUS Napisy PL.avi
    Rozmiar Pliku: 703,72 MB
    Rozmiar segmentu: 9,00 MB
    Liczba segmentów: 79
    Liczba mirrorów: 8

    Hasło: www.ufs.pl

    Masz problem z programem MoorHunt? Zajrzyj do działu Poradniki & FAQ tego programu.
    Zalecamy pobieranie za pomocą MailShare







    Przepraszamy, ale nie możesz zobaczyć tego tematu. Musisz sie Zarejestrować
    albo Zalogować

    NAPISY PL: http://hostuje.net/file.php?id=166c9...fd6cb39d177e52
    Upload wykonany w MH 0.6.7.2
    Member -> Full Member -> UFS Trial -> UFS Uploader -> UFS Elite -> Moderator -> UFS Elite -> Super Vip -> Elite Kreator -> Elite Uploader -> Super Vip -> Elite Uploader -> Super Vip
    Intel Core i5 2500 3.3GHz
    SilentiumPC
    Asus H61
    Kingston HyperX 16GB DDR3 1600MHz
    Seagate 500GB
    Toshiba 320GB
    Seagate Desktop HDD 2TB
    GoodRam SSD 120GB
    Gigabyte GeForce 1060 6GB XTreme OC
    Nagrywarka Asus
    Thermaltake Modular SE 530W
    Zalman 3 Plus White



  2.    Sponsored Links




  3. #2
    Retired
     Info : 
    Dołączył
    Nov 2008
    Posty
    4,218
     Podziękowania : 
    Podziękował: 377
    Doceniono: 981 razy w 85 postach
     UFS Stats Uploady : 
    Filmy: 77.5
    Gry: 9
    Programy: 4
    TV's: 142
     Total Upload : 
    P2M UP: 812.8 GB
    Diller81 jest nieaktywny

    Domyślnie

    Ostatnio edytowane przez Diller81 ; 07-12-2012 o 08:48

  4. #3
    Full Member
     Info : 
    Dołączył
    Apr 2008
    Posty
    41
     Podziękowania : 
    Podziękował: 32
    Thanked 1 Time in 1 Post
    Master Husky jest nieaktywny

    Domyślnie

    Wielkie dzięki za wstawkę, czekałem na ten film.

  5. #4
    Full Member
     Info : 
    Dołączył
    Mar 2008
    Skąd
    Witanowice
    Posty
    264
     Podziękowania : 
    Podziękował: 150
    Doceniono: 3 razy w 3 postach
     UFS Stats Konta : 
    Gmail: 11
    Inne: 34
     Total CA : 
    Total CA: 3027 AC
    MBMelikson jest nieaktywny

    Domyślnie

    Widziałem "jedynke" kilka razy-fantastyczny klimat,oddający realia współczesnej Rosji.Kontynuacja nieco odstaje i tak jednak oglądałem ją z zapartym tchem.Wybitne filmy Busłowa.
    MasterBeat

Informacje o wątku

Użytkownicy przeglądający ten wątek

Aktualnie 1 użytkownik(ów) przegląda ten wątek. (0 zarejestrowany(ch) oraz 1 gości)

Uprawnienia umieszczania postów

  • Nie możesz zakładać nowych tematów
  • Nie możesz pisać wiadomości
  • Nie możesz dodawać załączników
  • Nie możesz edytować swoich postów
  •