Aktualizacje seriali
 



Ogłoszenia
UFS - dotacje
Dotacje SMS
Jak korzystać z forumowej szukajki



Pokaż wyniki od 1 do 2 z 2

Wątek: The Santa Clause 3: The Escape Clause [2006][DVDRip][ENG]

  1. #1
    Uwaga k0 bieta Awatar Silka
     Info : 
    Dołączył
    Mar 2008
    Skąd
    śląsk
    Posty
    2,256
     Podziękowania : 
    Podziękował: 14
    Doceniono: 216 razy w 74 postach
     UFS Stats Uploady : 
    Filmy: 51
    Gry: 9
    Programy: 7
    TV's: 156
    Muzyka: 139
    Inne: 1
    Małe uploady: 8
     UFS Stats Konta : 
    Gmail: 14
    Inne: 20
     Total Upload : 
    P2M UP: 271.3 GB
     Total CA : 
    Total CA: 495 AC
    Silka jest nieaktywny

    mh The Santa Clause 3: The Escape Clause [2006][DVDRip][ENG]

    The Santa Clause 3: The Escape Clause
    Śnięty Mikołaj 3: Uciekający Mikołaj




    Gatunek: Familijny, Fantasy, Komedia
    Produkcja: USA
    Premiera: 2 listopada 2006 (świat) 2006-11-02
    Reżyseria: Michael Lembeck
    Scenariusz: Ed Decter, John J. Strauss
    Ocena: 6,0 / 10
    Muzyka: George S. Clinton
    Dystrybucja: Forum Film Poland Sp. z o.o.



    Pani Mikołajowa (Elizabeth Mitchell) oczekuje dziecka. Św. Mikołaj (Tim Allen), by sprawić jej radość, zaprasza do domu teściów. Zajęty rodzinnymi sprawami Mikołaj nie zauważa, że przebiegły Jack Frost (Martin Short) chce pozbawić go pracy i stać się ulubieńcem ludzi.



    Bernard - David Krumholtz
    Charlie Calvin - Eric Lloyd
    Pani Mikołajowa - Elizabeth Mitchell
    Lucy Miller - Liliana Mumy
    Laura Miller - Wendy Crewson
    Curtis - Spencer Breslin
    Święty Mikołaj / Scott Calvin - Tim Allen
    Dr Neal Miller - Judge Reinhold







    Duration : 1h 27mn
    Overall bit rate : 1 113 Kbps
    Writing application : VirtualDubMod 1.5.10.2 (build 2540/release)
    Writing library : VirtualDubMod build 2540/release

    Video
    Format : MPEG-4 Visual
    Format profile : Streaming Video@L1
    Format settings, BVOP : Yes
    Format settings, QPel : No
    Format settings, GMC : No warppoints
    Format settings, Matrix : Default
    Codec ID : XVID
    Codec ID/Hint : XviD
    Duration : 1h 27mn
    Bit rate : 974 Kbps
    Width : 576 pixels
    Height : 304 pixels
    Display aspect ratio : 1.895
    Frame rate : 25.000 fps
    Resolution : 24 bits
    Colorimetry : 4:2:0
    Scan type : Progressive
    Bits/(Pixel*Frame) : 0.222
    Stream size : 612 MiB (87%)
    Writing library : XviD 1.1.2 (UTC 2006-11-01)

    Audio
    Format : MPEG Audio
    Format version : Version 1
    Format profile : Layer 3
    Codec ID : 55
    Codec ID/Hint : MP3
    Duration : 1h 27mn
    Bit rate mode : Variable
    Bit rate : 127 Kbps
    Nominal bit rate : 128 Kbps
    Channel(s) : 2 channels
    Sampling rate : 48.0 KHz
    Resolution : 16 bits
    Video delay : 528ms
    Stream size : 79.7 MiB (11%)
    Alignment : Aligned on interleaves
    Interleave, duration : 24 ms (0.60 video frame)
    Interleave, preload duration : 1528 ms
    Writing library : LAME3.90.
    Encoding settings : ABR



    Nazwa pliku: The Santa Clause 3.avi
    Rozmiar Pliku: 700,01 MB
    Rozmiar segmentu: 9,00 MB
    Liczba segmentów: 78
    Liczba mirrorów: 8
    Hasło: www.ufs.pl

    Masz problem z programem MoorHunt? Zajrzyj do działu Poradniki & FAQ tego programu.
    Zalecamy pobieranie za pomocą MailShare







    Przepraszamy, ale nie możesz zobaczyć tego tematu. Musisz sie Zarejestrować
    albo Zalogować

    Upload wykonany w MH 0.6.7.2




    "...Jeśli któregoś dnia, ktoś zarzuci Ci, że Twoja praca nie jest profesjonalna, powiedz sobie, że Arkę Noego zbudowali amatorzy a Titanic'a profesjonaliści..."



    Trial -> 31.01.10 Uploader -> 14.09.10 Elita -> 6.11.10 Moderator -> 11.06.12 Retired -> 11.11.12 Elita ->21.04.2013 Retired

    Mail Resender



  2.    Sponsored Links




  3. #2
    Retired
     Info : 
    Dołączył
    Nov 2008
    Posty
    4,218
     Podziękowania : 
    Podziękował: 377
    Doceniono: 981 razy w 85 postach
     UFS Stats Uploady : 
    Filmy: 77.5
    Gry: 9
    Programy: 4
    TV's: 142
     Total Upload : 
    P2M UP: 812.8 GB
    Diller81 jest nieaktywny

    Domyślnie

    Ostatnio edytowane przez Diller81 ; 26-11-2012 o 09:09

Informacje o wątku

Użytkownicy przeglądający ten wątek

Aktualnie 1 użytkownik(ów) przegląda ten wątek. (0 zarejestrowany(ch) oraz 1 gości)

Podobne wątki

  1. 0.7GB The Santa Clause [1994][DVDRip][ENG]
    Przez Silka w dziale HQ (High Quality - Wysoka Jakość)
    Odpowiedzi: 1
    Ostatni post / autor: 27-11-2012, 22:55
  2. 0.7GB The Santa Clause 2 [2002][DVDRip][ENG]
    Przez Silka w dziale HQ (High Quality - Wysoka Jakość)
    Odpowiedzi: 1
    Ostatni post / autor: 26-11-2012, 09:09

Uprawnienia umieszczania postów

  • Nie możesz zakładać nowych tematów
  • Nie możesz pisać wiadomości
  • Nie możesz dodawać załączników
  • Nie możesz edytować swoich postów
  •