Aktualizacje seriali
 



Ogłoszenia
UFS - dotacje
Dotacje SMS
Jak korzystać z forumowej szukajki



Pokaż wyniki od 1 do 2 z 2

Wątek: The Santa Clause 2 [2002][DVDRip][ENG]

  1. #1
    Uwaga k0 bieta Awatar Silka
     Info : 
    Dołączył
    Mar 2008
    Skąd
    śląsk
    Posty
    2,256
     Podziękowania : 
    Podziękował: 14
    Doceniono: 215 razy w 74 postach
     UFS Stats Uploady : 
    Filmy: 51
    Gry: 9
    Programy: 7
    TV's: 156
    Muzyka: 139
    Inne: 1
    Małe uploady: 8
     UFS Stats Konta : 
    Gmail: 14
    Inne: 20
     Total Upload : 
    P2M UP: 271.3 GB
     Total CA : 
    Total CA: 495 AC
    Silka jest nieaktywny

    mh The Santa Clause 2 [2002][DVDRip][ENG]

    The Santa Clause 2
    Śnięty Mikołaj 2




    Gatunek: Familijny, Fantasy, Komedia, Przygodowy
    Produkcja: USA
    Premiera: 13 grudnia 2002 (Polska) 2002-12-13, 27 października 2002 (świat) 2002-10-27
    Reżyseria: Michael Lembeck
    Scenariusz: Don Rhymer, Ed Decter, John J. Strauss, Cinco Paul, Ken Daurio
    Ocena: 6,2 / 10
    Muzyka: George S. Clinton
    Zdjęcia: Craig Haagensen , Adam Greenberg
    Dystrybucja: Syrena EG



    Śnięty Mikołaj 2 (ang. The Santa Clause 2, 2002) – amerykański film familijny, komediowy. Sequel filmu Śnięty Mikołaj z 1994 roku.



    Scott Calvin - Tim Allen
    Dr Neal Miller - Judge Reinhold
    Curtis, Elf doświadczalny - Spencer Breslin
    Laura Miller - Wendy Crewson
    Charlie Calvin - Eric Lloyd
    Bernard, Elf strzelec - David Krumholtz
    Dyrektor Carol Newman - Elizabeth Mitchell
    Matka Natura - Aisha Tyler







    Duration : 1h 40mn
    Overall bit rate : 972 Kbps
    Writing application : Nandub v1.0rc2
    Writing library : Nandub build 1852/release

    Video
    Format : MPEG-4 Visual
    Format settings, BVOP : No
    Format settings, QPel : No
    Format settings, GMC : No warppoints
    Format settings, Matrix : Default
    Codec ID : XVID
    Codec ID/Hint : XviD
    Duration : 1h 40mn
    Bit rate : 830 Kbps
    Width : 608 pixels
    Height : 320 pixels
    Display aspect ratio : 1.900
    Frame rate : 25.000 fps
    Resolution : 24 bits
    Colorimetry : 4:2:0
    Scan type : Progressive
    Bits/(Pixel*Frame) : 0.171
    Stream size : 595 MiB (85%)

    Audio
    Format : MPEG Audio
    Format version : Version 1
    Format profile : Layer 3
    Codec ID : 55
    Codec ID/Hint : MP3
    Duration : 1h 40mn
    Bit rate mode : Variable
    Bit rate : 129 Kbps
    Channel(s) : 2 channels
    Sampling rate : 44.1 KHz
    Resolution : 16 bits
    Stream size : 92.3 MiB (13%)
    Alignment : Aligned on interleaves
    Interleave, duration : 26 ms (0.65 video frame)
    Interleave, preload duration : 330 ms
    Writing library : LAME3.92



    Nazwa pliku: The Santa Clause 2.avi
    Rozmiar Pliku: 695,75 MB
    Rozmiar segmentu: 9,00 MB
    Liczba segmentów: 78
    Liczba mirrorów: 6
    Hasło: www.ufs.pl

    Masz problem z programem MoorHunt? Zajrzyj do działu Poradniki & FAQ tego programu.
    Zalecamy pobieranie za pomocą MailShare







    Przepraszamy, ale nie możesz zobaczyć tego tematu. Musisz sie Zarejestrować
    albo Zalogować

    Upload wykonany w MH 0.6.7.2




    "...Jeśli któregoś dnia, ktoś zarzuci Ci, że Twoja praca nie jest profesjonalna, powiedz sobie, że Arkę Noego zbudowali amatorzy a Titanic'a profesjonaliści..."



    Trial -> 31.01.10 Uploader -> 14.09.10 Elita -> 6.11.10 Moderator -> 11.06.12 Retired -> 11.11.12 Elita ->21.04.2013 Retired

    Mail Resender



  2.    Sponsored Links




  3. #2
    Retired
     Info : 
    Dołączył
    Nov 2008
    Posty
    4,218
     Podziękowania : 
    Podziękował: 377
    Doceniono: 981 razy w 85 postach
     UFS Stats Uploady : 
    Filmy: 77.5
    Gry: 9
    Programy: 4
    TV's: 142
     Total Upload : 
    P2M UP: 812.8 GB
    Diller81 jest nieaktywny

    Domyślnie


Informacje o wątku

Użytkownicy przeglądający ten wątek

Aktualnie 1 użytkownik(ów) przegląda ten wątek. (0 zarejestrowany(ch) oraz 1 gości)

Podobne wątki

  1. Sexy Santa Wallpapers [275][JPG][2012]
    Przez bodziosol w dziale Inne
    Odpowiedzi: 8
    Ostatni post / autor: 10-12-2012, 21:09
  2. 0.7GB The Santa Clause [1994][DVDRip][ENG]
    Przez Silka w dziale HQ (High Quality - Wysoka Jakość)
    Odpowiedzi: 1
    Ostatni post / autor: 27-11-2012, 22:55
  3. 0.7GB The Santa Clause 3: The Escape Clause [2006][DVDRip][ENG]
    Przez Silka w dziale HQ (High Quality - Wysoka Jakość)
    Odpowiedzi: 1
    Ostatni post / autor: 26-11-2012, 09:05

Uprawnienia umieszczania postów

  • Nie możesz zakładać nowych tematów
  • Nie możesz pisać wiadomości
  • Nie możesz dodawać załączników
  • Nie możesz edytować swoich postów
  •