Aktualizacje seriali
 



Ogłoszenia
UFS - dotacje
Dotacje SMS
Jak korzystać z forumowej szukajki



Pokaż wyniki od 1 do 2 z 2

Wątek: The Santa Clause [1994][DVDRip][ENG]

  1. #1
    Uwaga k0 bieta Awatar Silka
     Info : 
    Dołączył
    Mar 2008
    Skąd
    śląsk
    Posty
    2,256
     Podziękowania : 
    Podziękował: 14
    Doceniono: 216 razy w 74 postach
     UFS Stats Uploady : 
    Filmy: 51
    Gry: 9
    Programy: 7
    TV's: 156
    Muzyka: 139
    Inne: 1
    Małe uploady: 8
     UFS Stats Konta : 
    Gmail: 14
    Inne: 20
     Total Upload : 
    P2M UP: 271.3 GB
     Total CA : 
    Total CA: 495 AC
    Silka jest nieaktywny

    mh The Santa Clause [1994][DVDRip][ENG]

    The Santa Clause
    Śnięty Mikołaj




    Gatunek: Dramat, Familijny, Fantasy, Komedia
    Produkcja: USA
    Premiera: 8 grudnia 1995 (Polska) 1995-12-08, 11 listopada 1994 (świat) 1994-11-11
    Reżyseria: John Pasquin
    Scenariusz: Leo Benvenuti, Steve Rudnick
    Ocena: 6,1 / 10
    Muzyka: Michael Convertino
    Zdjęcia: Walt Lloyd



    Wiecznie zajęty i zapracowany Scott Calvin (Tim Allen) ma spędzić Boże Narodzenie ze swoim 6-letnim synem, Charliem. Bezskutecznie próbuje znaleźć wspólny język z synem, który uważa go za nudziarza. Na dodatek chłopiec jest przygnębiony, bo była żona Scotta, Laura i jej nowy mąż, psychiatra Neal, właśnie poinformowali go, że Święty Mikołaj nie istnieje. W wigilijną noc Charlie słyszy hałas dobiegający z dachu. Kiedy Scott wychodzi sprawdzić co to takiego, dostrzega kogoś na dachu. Zdenerwowany zaczyna na niego wrzeszczeć, przez co traci on równowagę i spada. Okazuje się, że to Święty Mikołaj, a Scott przypadkowo go zabił. W tej sytuacji musi on przejąć obowiązki Mikołaja i rozwieźć prezenty…



    Scott Calvin / Mikołaj - Tim Allen
    Doktor Neal Miller - Judge Reinhold
    Laura Miller - Wendy Crewson
    Charlie Calvin - Eric Lloyd
    Bernard - David Krumholtz
    Detektyw Nunzio - Larry Brandenburg
    Panna Daniels - Mary Gross
    Judy - Paige Tamada








    Duration : 1h 33mn
    Overall bit rate : 1 052 Kbps
    Writing application : VirtualDubMod 1.5.4.1 (build 2178/release)
    Writing library : VirtualDubMod build 2178/release

    Video
    Format : MPEG-4 Visual
    Format profile : Simple@L3
    Format settings, BVOP : Yes
    Format settings, QPel : No
    Format settings, GMC : No warppoints
    Format settings, Matrix : Custom
    Codec ID : XVID
    Codec ID/Hint : XviD
    Duration : 1h 33mn
    Bit rate : 848 Kbps
    Width : 576 pixels
    Height : 304 pixels
    Display aspect ratio : 1.895
    Frame rate : 25.000 fps
    Resolution : 24 bits
    Colorimetry : 4:2:0
    Scan type : Progressive
    Bits/(Pixel*Frame) : 0.194
    Stream size : 565 MiB (81%)
    Writing library : XviD 0.0.09 (UTC 2003-03-25)

    Audio
    Format : MPEG Audio
    Format version : Version 1
    Format profile : Layer 3
    Codec ID : 55
    Codec ID/Hint : MP3
    Duration : 1h 33mn
    Bit rate mode : Variable
    Bit rate : 192 Kbps
    Channel(s) : 2 channels
    Sampling rate : 48.0 KHz
    Resolution : 16 bits
    Stream size : 127 MiB (18%)
    Alignment : Aligned on interleaves
    Interleave, duration : 24 ms (0.60 video frame)
    Interleave, preload duration : 96 ms
    Writing library : LAME3.90.
    Encoding settings : ABR



    Nazwa pliku: The Santa Clause.avi
    Rozmiar Pliku: 700,96 MB
    Rozmiar segmentu: 9,00 MB
    Liczba segmentów: 78
    Liczba mirrorów: 8
    Hasło: www.ufs.pl

    Masz problem z programem MoorHunt? Zajrzyj do działu Poradniki & FAQ tego programu.
    Zalecamy pobieranie za pomocą MailShare







    Przepraszamy, ale nie możesz zobaczyć tego tematu. Musisz sie Zarejestrować
    albo Zalogować

    Upload wykonany w MH 0.6.7.2
    Ostatnio edytowane przez Silka ; 26-11-2012 o 19:16




    "...Jeśli któregoś dnia, ktoś zarzuci Ci, że Twoja praca nie jest profesjonalna, powiedz sobie, że Arkę Noego zbudowali amatorzy a Titanic'a profesjonaliści..."



    Trial -> 31.01.10 Uploader -> 14.09.10 Elita -> 6.11.10 Moderator -> 11.06.12 Retired -> 11.11.12 Elita ->21.04.2013 Retired

    Mail Resender



  2.    Sponsored Links




  3. #2
    Retired Awatar SilentDeVir
     Info : 
    Dołączył
    Oct 2007
    Skąd
    Krzeszów
    Posty
    2,360
     Podziękowania : 
    Podziękował: 278
    Doceniono: 456 razy w 120 postach
     UFS Stats Uploady : 
    Filmy: 128
    Gry: 44
    TV's: 15
    Muzyka: 5
    Porno: 21
    Inne: 2
    Małe uploady: 1
     UFS Stats Konta : 
    Gmail: 32
    Inne: 386
     Total Upload : 
    P2M UP: 777.45 GB
     Total CA : 
    Total CA: 25320 AC
    SilentDeVir jest nieaktywny

    Domyślnie

    niezatwierdzone

Informacje o wątku

Użytkownicy przeglądający ten wątek

Aktualnie 1 użytkownik(ów) przegląda ten wątek. (0 zarejestrowany(ch) oraz 1 gości)

Podobne wątki

  1. Sexy Santa Wallpapers [275][JPG][2012]
    Przez bodziosol w dziale Inne
    Odpowiedzi: 8
    Ostatni post / autor: 10-12-2012, 21:09
  2. 0.7GB The Santa Clause 2 [2002][DVDRip][ENG]
    Przez Silka w dziale HQ (High Quality - Wysoka Jakość)
    Odpowiedzi: 1
    Ostatni post / autor: 26-11-2012, 09:09
  3. 0.7GB The Santa Clause 3: The Escape Clause [2006][DVDRip][ENG]
    Przez Silka w dziale HQ (High Quality - Wysoka Jakość)
    Odpowiedzi: 1
    Ostatni post / autor: 26-11-2012, 09:05

Uprawnienia umieszczania postów

  • Nie możesz zakładać nowych tematów
  • Nie możesz pisać wiadomości
  • Nie możesz dodawać załączników
  • Nie możesz edytować swoich postów
  •