Aktualizacje seriali
 



Ogłoszenia
UFS - dotacje
Dotacje SMS
Jak korzystać z forumowej szukajki



Pokaż wyniki od 1 do 4 z 4

Wątek: The Dark Knight Rises [2012][Blu-Ray][1080p][ENG]

  1. #1
    Gdzie są pieniądze za las?! Awatar Stachu
     Info : 
    Dołączył
    Oct 2007
    Skąd
    Köln
    Posty
    9,414
     Podziękowania : 
    Podziękował: 243
    Doceniono: 37,486 razy w 1,148 postach
     UFS Stats Uploady : 
    Filmy: 892
    Gry: 597
    Programy: 14
    TV's: 297
    Muzyka: 87
    Porno: 69
    Inne: 66
    Małe uploady: 12
     UFS Stats Konta : 
    Gmail: 205
    Inne: 648
     Total Upload : 
    P2M UP: 8184.15 GB
     Total CA : 
    Total CA: 14861 AC
     Total HTTP Upload : 
    HTTP UP: 0.7 GB
    Stachu jest nieaktywny

    mh The Dark Knight Rises [2012][Blu-Ray][1080p][ENG]

    The Dark Knight Rises
    Mroczny Rycerz powstaje




    Gatunek: Akcja, Sci-Fi
    Produkcja: USA, Wielka Brytania
    Premiera: 27 lipca 2012 (Polska) 2012-07-27, 16 lipca 2012 (świat) 2012-07-16
    Reżyseria: Christopher Nolan
    Scenariusz: Jonathan Nolan, Christopher Nolan
    Ocena: 8,0 / 10
    Muzyka: Hans Zimmer
    Zdjęcia: Wally Pfister
    Dystrybucja: Warner Bros. Entertainment Polska Sp. z o. o.



    
Po ośmiu latach nieobecności Batman wraca, by uratować Gotham City przed zamaskowanym terrorystą Banem.



    Bruce Wayne / Batman - Christian Bale
    Komisarz Jim Gordon - Gary Oldman
    Bane - Tom Hardy
    John Blake - Joseph Gordon-Levitt
    Selina Kyle / Kobieta-Kot - Anne Hathaway
    Miranda Tate - Marion Cotillard
    Lucius Fox - Morgan Freeman
    Alfred - Michael Caine









    Video
    ID : 1
    Format : AVC
    Format/Info : Advanced Video Codec
    Format profile : High@L4.1
    Format settings, CABAC : Yes
    Format settings, ReFrames : 4 frames
    Codec ID : V_MPEG4/ISO/AVC
    Duration : 2h 44mn
    Bit rate : 8 954 Kbps
    Width : 1 920 pixels
    Height : 1 080 pixels
    Display aspect ratio : 16:9
    Frame rate mode : Constant
    Frame rate : 23.976 fps
    Color space : YUV
    Chroma subsampling : 4:2:0
    Bit depth : 8 bits
    Scan type : Progressive
    Bits/(Pixel*Frame) : 0.180
    Stream size : 10.1 GiB (84%)
    Writing library : x264 core 128 r2216 198a7ea
    Encoding settings : cabac=1 / ref=4 / deblock=1:0:0 / analyse=0x3:0x133 / me=umh / subme=7 / psy=1 / psy_rd=1.00:0.00 / mixed_ref=1 / me_range=16 / chroma_me=1 / trellis=1 / 8x8dct=1 / cqm=0 / deadzone=21,11 / fast_pskip=0 / chroma_qp_offset=-2 / threads=12 / lookahead_threads=2 / sliced_threads=0 / nr=0 / decimate=1 / interlaced=0 / bluray_compat=0 / constrained_intra=0 / bframes=3 / b_pyramid=2 / b_adapt=1 / b_bias=0 / direct=1 / weightb=1 / open_gop=0 / weightp=2 / keyint=250 / keyint_min=23 / scenecut=40 / intra_refresh=0 / rc_lookahead=40 / rc=2pass / mbtree=1 / bitrate=8954 / ratetol=1.0 / qcomp=0.60 / qpmin=0 / qpmax=69 / qpstep=4 / cplxblur=20.0 / qblur=0.5 / ip_ratio=1.40 / aq=1:1.00
    Language : English
    Default : Yes
    Forced : No

    Audio
    ID : 2
    Format : DTS
    Format/Info : Digital Theater Systems
    Mode : 16
    Format settings, Endianness : Big
    Codec ID : A_DTS
    Duration : 2h 44mn
    Bit rate mode : Constant
    Bit rate : 1 509 Kbps
    Channel(s) : 6 channels
    Channel positions : Front: L C R, Side: L R, LFE
    Sampling rate : 48.0 KHz
    Bit depth : 24 bits
    Compression mode : Lossy
    Stream size : 1.73 GiB (14%)
    Language : English
    Default : Yes
    Forced : No




    PART1-4
    Nazwa pliku: the.dark.knight.rises.2012.1080p.bluray-alliance.partx.rar
    Rozmiar Pliku: 3,00 GB
    Rozmiar segmentu: 9,00 MB
    Liczba segmentów: 342
    Liczba mirrorów: 10

    Hasło: www.ufs.pl

    PART5
    Nazwa pliku: the.dark.knight.rises.2012.1080p.bluray-alliance.part5.rar
    Rozmiar Pliku: 1,18 GB
    Rozmiar segmentu: 9,00 MB
    Liczba segmentów: 134
    Liczba mirrorów: 8

    Hasło: www.ufs.pl

    Masz problem z programem MoorHunt? Zajrzyj do działu Poradniki & FAQ tego programu.
    Zalecamy pobieranie za pomocą MailShare







    Przepraszamy, ale nie możesz zobaczyć tego tematu. Musisz sie Zarejestrować
    albo Zalogować

    Upload zawiera 10% danych naprawczych!
    Jak korzystać z danych naprawczych? Tutaj znajdziesz poradnik!
    Upload wykonany w MH 0.6.7.2
    Ostatnio edytowane przez jeep ; 25-10-2016 o 22:00
    Member -> Full Member -> UFS Trial -> UFS Uploader -> UFS Elite -> Moderator -> UFS Elite -> Super Vip -> Elite Kreator -> Elite Uploader -> Super Vip -> Elite Uploader -> Super Vip
    Intel Core i5 2500 3.3GHz
    SilentiumPC
    Asus H61
    Kingston HyperX 16GB DDR3 1600MHz
    Seagate 500GB
    Toshiba 320GB
    Seagate Desktop HDD 2TB
    GoodRam SSD 120GB
    Gigabyte GeForce 1060 6GB XTreme OC
    Nagrywarka Asus
    Thermaltake Modular SE 530W
    Zalman 3 Plus White



  2.    Sponsored Links




  3. #2
    Retired
     Info : 
    Dołączył
    Nov 2008
    Posty
    4,218
     Podziękowania : 
    Podziękował: 377
    Doceniono: 981 razy w 85 postach
     UFS Stats Uploady : 
    Filmy: 77.5
    Gry: 9
    Programy: 4
    TV's: 142
     Total Upload : 
    P2M UP: 812.8 GB
    Diller81 jest nieaktywny

    Domyślnie

    Ostatnio edytowane przez Diller81 ; 19-11-2012 o 11:42

  4. #3
    Full Member
     Info : 
    Dołączył
    Aug 2008
    Posty
    112
     Podziękowania : 
    Podziękował: 83
    Doceniono: 0 razy w 0 postach
    tomkill jest nieaktywny

    Domyślnie

    dobry film tylko ze ja ogldalem z lektorem

  5. #4
    Full Member Awatar rybcia12321
     Info : 
    Dołączył
    Oct 2007
    Skąd
    Tarnobrzeg
    Posty
    758
     Podziękowania : 
    Podziękował: 748
    Doceniono: 0 razy w 0 postach
    rybcia12321 jest nieaktywny

    Domyślnie

    Bez lektora film zdecydowanie lepszy:) Bane ma powalający głos którym nie jesteśmy się w stanie delektować w wersji z lektorem... Naprawdę polecam;)

Informacje o wątku

Użytkownicy przeglądający ten wątek

Aktualnie 1 użytkownik(ów) przegląda ten wątek. (0 zarejestrowany(ch) oraz 1 gości)

Podobne wątki

  1. 4.5GB The Dark Knight Rises [2012][DVD-R][ENG]
    Przez zguto w dziale Filmy DVD-R [Dział od rangi Full Member]
    Odpowiedzi: 1
    Ostatni post / autor: 15-11-2012, 21:43

Uprawnienia umieszczania postów

  • Nie możesz zakładać nowych tematów
  • Nie możesz pisać wiadomości
  • Nie możesz dodawać załączników
  • Nie możesz edytować swoich postów
  •