Aktualizacje seriali
 



Ogłoszenia
UFS - dotacje
Dotacje SMS
Jak korzystać z forumowej szukajki



Pokaż wyniki od 1 do 3 z 3

Wątek: Deadfall [2012][DVDRip][ENG][Napisy PL]

  1. #1
    Gdzie są pieniądze za las?! Awatar Stachu
     Info : 
    Dołączył
    Oct 2007
    Skąd
    Köln
    Posty
    9,414
     Podziękowania : 
    Podziękował: 243
    Doceniono: 37,523 razy w 1,149 postach
     UFS Stats Uploady : 
    Filmy: 892
    Gry: 597
    Programy: 14
    TV's: 297
    Muzyka: 87
    Porno: 69
    Inne: 66
    Małe uploady: 12
     UFS Stats Konta : 
    Gmail: 205
    Inne: 648
     Total Upload : 
    P2M UP: 8184.15 GB
     Total CA : 
    Total CA: 14861 AC
     Total HTTP Upload : 
    HTTP UP: 0.7 GB
    Stachu jest nieaktywny

    mh Deadfall [2012][DVDRip][ENG][Napisy PL]

    Deadfall



    Gatunek: Dramat, Kryminał, Thriller
    Produkcja: USA
    Premiera: 22 kwietnia 2012 (świat) 2012-04-22
    Reżyseria: Stefan Ruzowitzky
    Scenariusz: Zach Dean
    Ocena: 6,1 / 10
    Muzyka: Marco Beltrami
    Zdjęcia: Shane Hurlbut
    Dystrybucja: ITI Cinema Sp. z o.o.



    Po nieudanym skoku na kasyno, rodzeństwo zmuszone jest do rozdzielenia się i ucieczki na własną rękę.



    Addison - Eric Bana
    Liza - Olivia Wilde
    Jay - Charlie Hunnam
    June - Sissy Spacek
    Chet - Kris Kristofferson
    Hanna - Kate Mara
    Becker - Treat Williams
    Travis - Jason Cavalier









    Video
    ID : 0
    Format : MPEG-4 Visual
    Format profile : Advanced Simple@L5
    Format settings, BVOP : 1
    Format settings, QPel : No
    Format settings, GMC : No warppoints
    Format settings, Matrix : Default (H.263)
    Muxing mode : Packed bitstream
    Codec ID : XVID
    Codec ID/Hint : XviD
    Duration : 1h 33mn
    Bit rate : 924 Kbps
    Width : 640 pixels
    Height : 272 pixels
    Display aspect ratio : 2.35:1
    Frame rate : 23.976 fps
    Color space : YUV
    Chroma subsampling : 4:2:0
    Bit depth : 8 bits
    Scan type : Progressive
    Compression mode : Lossy
    Bits/(Pixel*Frame) : 0.221
    Stream size : 619 MiB (88%)
    Writing library : XviD 64

    Audio
    ID : 1
    Format : MPEG Audio
    Format version : Version 1
    Format profile : Layer 3
    Mode : Joint stereo
    Mode extension : MS Stereo
    Codec ID : 55
    Codec ID/Hint : MP3
    Duration : 1h 33mn
    Bit rate mode : Variable
    Bit rate : 109 Kbps
    Nominal bit rate : 128 Kbps
    Channel(s) : 2 channels
    Sampling rate : 48.0 KHz
    Compression mode : Lossy
    Stream size : 73.1 MiB (10%)
    Alignment : Aligned on interleaves
    Interleave, duration : 24 ms (0.58 video frame)
    Interleave, preload duration : 542 ms
    Writing library : LAME3.98r
    Encoding settings : -m j -V 4 -q 2 -lowpass 17 --abr 128




    Nazwa pliku: Deadfall.2012.PL.DVDRip.XviD-KAMFT.avi
    Rozmiar Pliku: 701,00 MB
    Rozmiar segmentu: 9,00 MB
    Liczba segmentów: 78
    Liczba mirrorów: 9

    Hasło: www.ufs.pl

    Masz problem z programem MoorHunt? Zajrzyj do działu Poradniki & FAQ tego programu.
    Zalecamy pobieranie za pomocą MailShare







    Przepraszamy, ale nie możesz zobaczyć tego tematu. Musisz sie Zarejestrować
    albo Zalogować

    Upload wykonany w MH 0.6.7.2
    Member -> Full Member -> UFS Trial -> UFS Uploader -> UFS Elite -> Moderator -> UFS Elite -> Super Vip -> Elite Kreator -> Elite Uploader -> Super Vip -> Elite Uploader -> Super Vip
    Intel Core i5 2500 3.3GHz
    SilentiumPC
    Asus H61
    Kingston HyperX 16GB DDR3 1600MHz
    Seagate 500GB
    Toshiba 320GB
    Seagate Desktop HDD 2TB
    GoodRam SSD 120GB
    Gigabyte GeForce 1060 6GB XTreme OC
    Nagrywarka Asus
    Thermaltake Modular SE 530W
    Zalman 3 Plus White



  2.    Sponsored Links




  3. #2
    Retired
     Info : 
    Dołączył
    Nov 2008
    Posty
    4,218
     Podziękowania : 
    Podziękował: 377
    Doceniono: 981 razy w 85 postach
     UFS Stats Uploady : 
    Filmy: 77.5
    Gry: 9
    Programy: 4
    TV's: 142
     Total Upload : 
    P2M UP: 812.8 GB
    Diller81 jest nieaktywny

    Domyślnie

    Ostatnio edytowane przez Diller81 ; 13-11-2012 o 19:45

  4. #3
    Full Member
     Info : 
    Dołączył
    Jun 2009
    Posty
    216
     Podziękowania : 
    Podziękował: 173
    Doceniono: 0 razy w 0 postach
    artek73 jest nieaktywny

    Domyślnie

    Film swietny ale wtopione napisy istny koszmar !!! Kto to tłumaczył ? Nijak się mają do tekstów aktorów oraz nie maja zadnego sensu ani logiki... tłumacz ewidentnie zmyślał starajac sie dopasować napisy do tego co widzi na ekranie a nie autentycznie tłumaczyć... porażka w tej kwestii ale sam film świetny ;)

Informacje o wątku

Użytkownicy przeglądający ten wątek

Aktualnie 1 użytkownik(ów) przegląda ten wątek. (0 zarejestrowany(ch) oraz 1 gości)

Podobne wątki

  1. 1.4GB Deadfall [2012][BRRip][AC3][ENG]
    Przez ozyrys w dziale HQ (High Quality - Wysoka Jakość)
    Odpowiedzi: 1
    Ostatni post / autor: 23-01-2013, 10:07
  2. Deadfall Trail [2009][DVDRip][AC3][ENG]
    Przez Only one w dziale HQ (High Quality - Wysoka Jakość)
    Odpowiedzi: 2
    Ostatni post / autor: 17-11-2010, 09:20

Uprawnienia umieszczania postów

  • Nie możesz zakładać nowych tematów
  • Nie możesz pisać wiadomości
  • Nie możesz dodawać załączników
  • Nie możesz edytować swoich postów
  •