Aktualizacje seriali
 



Ogłoszenia
UFS - dotacje
Dotacje SMS
Jak korzystać z forumowej szukajki



Pokaż wyniki od 1 do 2 z 2

Wątek: Ted [2012][Blu-Ray][1080p][ENG]

  1. #1
    Gdzie są pieniądze za las?! Awatar Stachu
     Info : 
    Dołączył
    Oct 2007
    Skąd
    Köln
    Posty
    9,414
     Podziękowania : 
    Podziękował: 243
    Doceniono: 37,502 razy w 1,148 postach
     UFS Stats Uploady : 
    Filmy: 892
    Gry: 597
    Programy: 14
    TV's: 297
    Muzyka: 87
    Porno: 69
    Inne: 66
    Małe uploady: 12
     UFS Stats Konta : 
    Gmail: 205
    Inne: 648
     Total Upload : 
    P2M UP: 8184.15 GB
     Total CA : 
    Total CA: 14861 AC
     Total HTTP Upload : 
    HTTP UP: 0.7 GB
    Stachu jest nieaktywny

    mh Ted [2012][Blu-Ray][1080p][ENG]

    Ted



    Gatunek: Fantasy, Komedia
    Produkcja: USA
    Premiera: 7 września 2012 (Polska) 2012-09-07, 29 czerwca 2012 (świat) 2012-06-29
    Reżyseria: Seth MacFarlane
    Scenariusz: Seth MacFarlane, Alec Sulkin, Wellesley Wild
    Ocena: 7,0 / 10
    Muzyka: Walter Murphy
    Zdjęcia: Michael Barrett
    Dystrybucja: United International Pictures Sp z o.o.



    John ma 35 lat i chce się wreszcie ustatkować. Pewnego dnia ożywa jego pluszowy miś z dzieciństwa, który zaczyna sprowadzać go na złą drogę.



    John Bennett - Mark Wahlberg
    Lori Collins - Mila Kunis
    Ted - Seth MacFarlane
    Rex - Joel McHale
    Donny - Giovanni Ribisi
    Guy - Patrick Warburton
    Thomas - Matt Walsh
    Tami-Lynn - Jessica Barth









    Video
    ID : 2
    Format : AVC
    Format/Info : Advanced Video Codec
    Format profile : High@L4.1
    Format settings, CABAC : Yes
    Format settings, ReFrames : 4 frames
    Muxing mode : Header stripping
    Codec ID : V_MPEG4/ISO/AVC
    Duration : 1h 46mn
    Bit rate : 8 815 Kbps
    Width : 1 920 pixels
    Height : 1 040 pixels
    Display aspect ratio : 1.85:1
    Frame rate mode : Constant
    Frame rate : 23.976 fps
    Color space : YUV
    Chroma subsampling : 4:2:0
    Bit depth : 8 bits
    Scan type : Progressive
    Bits/(Pixel*Frame) : 0.184
    Stream size : 6.37 GiB (83%)
    Writing library : x264 core 128 r2216kMod 198a7ea
    Encoding settings : cabac=1 / ref=4 / deblock=1:0:0 / analyse=0x3:0x133 / me=umh / subme=7 / psy=1 / fade_compensate=0.00 / psy_rd=1.00:0.00 / mixed_ref=1 / me_range=16 / chroma_me=1 / trellis=1 / 8x8dct=1 / cqm=0 / deadzone=21,11 / fast_pskip=1 / chroma_qp_offset=-2 / threads=18 / lookahead_threads=3 / sliced_threads=0 / nr=0 / decimate=1 / interlaced=0 / bluray_compat=0 / constrained_intra=0 / bframes=3 / b_pyramid=2 / b_adapt=2 / b_bias=0 / direct=3 / weightb=1 / open_gop=0 / weightp=2 / keyint=250 / keyint_min=23 / scenecut=40 / intra_refresh=0 / rc_lookahead=40 / rc=2pass / mbtree=1 / bitrate=8815 / ratetol=1.0 / qcomp=0.60 / qpmin=0 / qpmax=69 / qpstep=4 / cplxblur=20.0 / qblur=0.5 / ip_ratio=1.40 / aq=1:1.00
    Default : Yes
    Forced : No

    Audio
    ID : 1
    Format : DTS
    Format/Info : Digital Theater Systems
    Mode : 16
    Format settings, Endianness : Big
    Muxing mode : Header stripping
    Codec ID : A_DTS
    Duration : 1h 46mn
    Bit rate mode : Constant
    Bit rate : 1 509 Kbps
    Channel(s) : 6 channels
    Channel positions : Front: L C R, Side: L R, LFE
    Sampling rate : 48.0 KHz
    Bit depth : 24 bits
    Compression mode : Lossy
    Stream size : 1.12 GiB (15%)
    Default : Yes
    Forced : No




    PART1-2
    Nazwa pliku: Ted.2012.1080p.BluRay.partx.rar
    Rozmiar Pliku: 3,00 GB
    Rozmiar segmentu: 9,00 MB
    Liczba segmentów: 342
    Liczba mirrorów: 10


    PART3
    Nazwa pliku: Ted.2012.1080p.BluRay.part3.rar
    Rozmiar Pliku: 2,38 GB
    Rozmiar segmentu: 9,00 MB
    Liczba segmentów: 271
    Liczba mirrorów: 10

    Hasło: www.ufs.pl

    Masz problem z programem MoorHunt? Zajrzyj do działu Poradniki & FAQ tego programu.
    Zalecamy pobieranie za pomocą MailShare







    Przepraszamy, ale nie możesz zobaczyć tego tematu. Musisz sie Zarejestrować
    albo Zalogować

    Upload zawiera 10% danych naprawczych!
    Jak korzystać z danych naprawczych? Tutaj znajdziesz poradnik!
    Upload wykonany w MH 0.6.7.2
    Ostatnio edytowane przez jeep ; 25-10-2016 o 21:58
    Member -> Full Member -> UFS Trial -> UFS Uploader -> UFS Elite -> Moderator -> UFS Elite -> Super Vip -> Elite Kreator -> Elite Uploader -> Super Vip -> Elite Uploader -> Super Vip
    Intel Core i5 2500 3.3GHz
    SilentiumPC
    Asus H61
    Kingston HyperX 16GB DDR3 1600MHz
    Seagate 500GB
    Toshiba 320GB
    Seagate Desktop HDD 2TB
    GoodRam SSD 120GB
    Gigabyte GeForce 1060 6GB XTreme OC
    Nagrywarka Asus
    Thermaltake Modular SE 530W
    Zalman 3 Plus White



  2.    Sponsored Links




  3. #2
    Awatar kejo
     Info : 
    Dołączył
    Mar 2008
    Skąd
    się biorą dzieci?
    Posty
    4,877
     Podziękowania : 
    Podziękował: 650
    Doceniono: 17,137 razy w 467 postach
     UFS Stats Uploady : 
    Filmy: 288
    Gry: 99
    Programy: 1
    TV's: 65
    Muzyka: 286
    Inne: 22
    Małe uploady: 15
     UFS Stats Konta : 
    Gmail: 176
    Inne: 229
     Total Upload : 
    P2M UP: 1548.35 GB
     Total CA : 
    Total CA: 9350 AC
    kejo jest nieaktywny

    Domyślnie

    niezatwierdzone
    Ostatnio edytowane przez kejo ; 10-11-2012 o 09:32





    Member [25.03.2008]
    UFS Trial [02.07.2010]
    UFS Kreator [18.07.2010]
    UFS Uploader [19.12.2010]
    UFS Elite [15.05.2011]
    Super Vip [19.03.2012]
    UFS Elite [01.10.2012]
    Moderator [28.10.2012]
    Super Moderator [07.04.2013]
    Retired [29.09.2013]
    UFS Elite [28.12.2013]
    Elite Kreator [08.04.2014]
    Retired [11.05.2014]




Informacje o wątku

Użytkownicy przeglądający ten wątek

Aktualnie 1 użytkownik(ów) przegląda ten wątek. (0 zarejestrowany(ch) oraz 1 gości)

Podobne wątki

  1. 9.5GB Prometheus [2012][Blu-Ray][1080p][ENG]
    Przez Stachu w dziale Filmy High Definition [Dział od rangi Full Member]
    Odpowiedzi: 1
    Ostatni post / autor: 24-01-2013, 18:58

Uprawnienia umieszczania postów

  • Nie możesz zakładać nowych tematów
  • Nie możesz pisać wiadomości
  • Nie możesz dodawać załączników
  • Nie możesz edytować swoich postów
  •