Aktualizacje seriali
 



Ogłoszenia
UFS - dotacje
Dotacje SMS
Jak korzystać z forumowej szukajki



Pokaż wyniki od 1 do 3 z 3

Wątek: The Amazing Spiderman [2012][DVDRip][ENG][Napisy PL]

  1. #1
    Gdzie są pieniądze za las?! Awatar Stachu
     Info : 
    Dołączył
    Oct 2007
    Skąd
    Köln
    Posty
    9,414
     Podziękowania : 
    Podziękował: 243
    Doceniono: 37,523 razy w 1,149 postach
     UFS Stats Uploady : 
    Filmy: 892
    Gry: 597
    Programy: 14
    TV's: 297
    Muzyka: 87
    Porno: 69
    Inne: 66
    Małe uploady: 12
     UFS Stats Konta : 
    Gmail: 205
    Inne: 648
     Total Upload : 
    P2M UP: 8184.15 GB
     Total CA : 
    Total CA: 14861 AC
     Total HTTP Upload : 
    HTTP UP: 0.7 GB
    Stachu jest nieaktywny

    mh The Amazing Spiderman [2012][DVDRip][ENG][Napisy PL]

    The Amazing Spiderman



    Gatunek: Akcja, Sci-Fi
    Data premiery (Świat): 29 czerwca 2012
    Data premiery (Polska): 4 lipca 2012
    Reżyseria: Marc Webb
    Scenariusz: James Vanderbilt Alvin SargentSteve Kloves
    Zdjęcia: John Schwartzman
    Muzyka: James Horner
    Ocena społeczności FilmWeb: 7,3



    Nastoletni samotnik, Peter Parker (Andrew Garfield), który wychował się w domu stryja, stara się dowiedzieć, dlaczego rodzice jako dziecko oddali go krewnym. Prywatne śledztwo w tej sprawie doprowadza go do doktora Curta Connorsa (Rhys Ifans), dawnego współpracownika ojca. Naukowiec nie chce jednak zdradzić Peterowi tajemnicy jego rodziny. Młody Parker, który po ukąszeniu przez pająka o zmodyfikowanym DNA zmienia się we wspinającego się po ścianach Spider-Mana, już wkrótce przekonuje się, że także Connors ma drugie oblicze. Jako Jaszczur staje się największym wrogiem Petera, ale nie jedynym. Spider-Man walczy z przestępcami w Nowym Jorku, ale przez policję sam uważany jest za bandytę. Stróże prawa wciąż depczą mu po piętach. Czy Peter pozna prawdę o matce i ojcu? Czy uwolni miasto od coraz bardziej bezwzględnych złoczyńców?




    Andrew Garfield : Spider-Man / Peter Parker
    Emma Stone : Gwen Stacy
    Rhys Ifans : Jaszczur / Dr Curt Connors
    Denis Leary : Kapitan Stacy
    Martin Sheen : Wujek Ben
    Sally Field : Ciocia May
    Irrfan Khan : Rajit Ratha
    Campbell Scott : Richard Parker
    Embeth Davidtz : Mary Parker
    Chris Zylka : Flash Thompson









    Format : AVI
    Format/Info : Audio Video Interleave
    File size : 700 MiB
    Duration : 2h 10mn
    Overall bit rate : 749 Kbps
    Writing application : VirtualDubMod 1.5.10.2 (build 2542/release)
    Writing library : VirtualDub build 32842/release

    Video
    ID : 0
    Format : MPEG-4 Visual
    Format profile : Advanced Simple@L5
    Format settings, BVOP : 1
    Format settings, QPel : No
    Format settings, GMC : No warppoints
    Format settings, Matrix : Default (H.263)
    Muxing mode : Packed bitstream
    Codec ID : XVID
    Codec ID/Hint : XviD
    Duration : 2h 10mn
    Bit rate : 611 Kbps
    Width : 640 pixels
    Height : 272 pixels
    Display aspect ratio : 2.35:1
    Frame rate : 25.000 fps
    Color space : YUV
    Chroma subsampling : 4:2:0
    Bit depth : 8 bits
    Scan type : Progressive
    Compression mode : Lossy
    Bits/(Pixel*Frame) : 0.140
    Stream size : 571 MiB (82%)
    Writing library : XviD 64

    Audio
    ID : 1
    Format : MPEG Audio
    Format version : Version 1
    Format profile : Layer 3
    Mode : Joint stereo
    Mode extension : MS Stereo
    Codec ID : 55
    Codec ID/Hint : MP3
    Duration : 2h 10mn
    Bit rate mode : Constant
    Bit rate : 128 Kbps
    Channel(s) : 2 channels
    Sampling rate : 48.0 KHz
    Compression mode : Lossy
    Stream size : 120 MiB (17%)
    Alignment : Split accross interleaves
    Interleave, duration : 40 ms (1.00 video frame)
    Interleave, preload duration : 500 ms
    Writing library : LAME3.99r
    Encoding settings : -m j -V 4 -q 2 -lowpass 17 -b 128





    Nazwa pliku: The Amazing Spiderman 2012 PL.SUBBED.DVDRip.XViD-MORS.avi
    Rozmiar Pliku: 699,86 MB
    Rozmiar segmentu: 9,00 MB
    Liczba segmentów: 78
    Liczba mirrorów: 9

    Hasło: www.ufs.pl

    Masz problem z programem MoorHunt? Zajrzyj do działu Poradniki & FAQ tego programu.
    Zalecamy pobieranie za pomocą MailShare







    Przepraszamy, ale nie możesz zobaczyć tego tematu. Musisz sie Zarejestrować
    albo Zalogować

    Upload wykonany w MH 0.6.7.2
    Member -> Full Member -> UFS Trial -> UFS Uploader -> UFS Elite -> Moderator -> UFS Elite -> Super Vip -> Elite Kreator -> Elite Uploader -> Super Vip -> Elite Uploader -> Super Vip
    Intel Core i5 2500 3.3GHz
    SilentiumPC
    Asus H61
    Kingston HyperX 16GB DDR3 1600MHz
    Seagate 500GB
    Toshiba 320GB
    Seagate Desktop HDD 2TB
    GoodRam SSD 120GB
    Gigabyte GeForce 1060 6GB XTreme OC
    Nagrywarka Asus
    Thermaltake Modular SE 530W
    Zalman 3 Plus White



  2.    Sponsored Links




  3. #2
    Retired Awatar Młody
     Info : 
    Dołączył
    Feb 2008
    Skąd
    Urzejowice
    Posty
    2,285
     Podziękowania : 
    Podziękował: 42
    Doceniono: 319 razy w 96 postach
     UFS Stats Uploady : 
    Filmy: 67
    Gry: 24
    TV's: 34
    Muzyka: 58
    Porno: 2
     UFS Stats Konta : 
    Gmail: 122
    Inne: 237
     Total Upload : 
    P2M UP: 556.7 GB
     Total CA : 
    Total CA: 10670 AC
    Młody jest nieaktywny

    Domyślnie

    niezatwierdzone
    Ostatnio edytowane przez Młody ; 19-10-2012 o 10:48




  4. #3
    Member
     Info : 
    Dołączył
    Aug 2008
    Skąd
    suwalki
    Posty
    9
     Podziękowania : 
    Podziękował: 4
    Doceniono: 0 razy w 0 postach
    heretyk41 jest nieaktywny

    Domyślnie

    dezieki

Informacje o wątku

Użytkownicy przeglądający ten wątek

Aktualnie 1 użytkownik(ów) przegląda ten wątek. (0 zarejestrowany(ch) oraz 1 gości)

Podobne wątki

  1. The Amazing Spiderman [2012][DVDRip][ENG][Napisy PL]
    Przez kadeshar w dziale HQ (High Quality - Wysoka Jakość)
    Odpowiedzi: 1
    Ostatni post / autor: 21-10-2012, 16:55
  2. The Amazing Spiderman [2012][DVDRip][AC3][ENG]
    Przez Kingpin w dziale HQ (High Quality - Wysoka Jakość)
    Odpowiedzi: 1
    Ostatni post / autor: 20-10-2012, 01:23

Uprawnienia umieszczania postów

  • Nie możesz zakładać nowych tematów
  • Nie możesz pisać wiadomości
  • Nie możesz dodawać załączników
  • Nie możesz edytować swoich postów
  •