Aktualizacje seriali
 



Ogłoszenia
UFS - dotacje
Dotacje SMS
Jak korzystać z forumowej szukajki



Pokaż wyniki od 1 do 3 z 3

Wątek: Chained [2012][BDRip][AC3][ENG]

  1. #1
    Impeccable Awatar Kingpin
     Info : 
    Dołączył
    May 2008
    Skąd
    Paris XVII arr
    Posty
    5,329
     Podziękowania : 
    Podziękował: 1,492
    Doceniono: 60,446 razy w 526 postach
     UFS Stats Uploady : 
    Filmy: 607
    Gry: 211
    Programy: 19
    TV's: 22
    Muzyka: 2
    Porno: 12
    Inne: 2
     UFS Stats Konta : 
    Gmail: 20
    Inne: 75
     Total Upload : 
    P2M UP: 3523.05 GB
     Total CA : 
    Total CA: 2080 AC
    Kingpin jest nieaktywny

    mh Chained [2012][BDRip][AC3][ENG]

    Chained



    Czas trwania: 1 godz. 34 min.
    Gatunek: Thriller
    Produkcja: USA
    Reżyseria: Jennifer Chambers Lynch
    Scenariusz: Damian O'Donnell
    Ocena: 5.6 / 10 (IMDb)
    Zdjęcia: Shane Daly



    Pewnego, sobotniego popołudnia, 8 letni Tim (Evan Bird) i jego matka Sarah (Julia Ormond) wsiadają do taksówki. Kierowcą okazuje się być seryjny morderca, Bob (Vincent D’Onofrio), który wybrał kolejne ofiary. Gdy chłopiec staje się świadkiem morderstwa swojej matki, jego koszmar dopiero się rozpoczyna. Przez kilka lat jest przetrzymywany i zmuszany do grzebania zwłok kolejnych ofiar Boba. Nastoletni Tim (Eamon Farren), będzie musiał dokonać makabrycznego wyboru, aby uwolnić się od swojego prześladowcy.



    Bob - Vincent D'Onofrio
    Starszy Rabbit - Eamon Farren
    Sarah Fittler - Julia Ormond
    Marie Fittler - Gina Philips
    Brad Fittler - Jake Weber
    Angie - Conor Leslie
    Młodszy Rabbit - Evan Bird
    Mary - Amy Matysio
    Mama Boba - Shannon Jardine
    Związana kobieta - Jodi Sadowsky







    Video
    ID : 0
    Format : MPEG-4 Visual
    Format profile : Advanced Simple@L5
    Format settings, BVOP : 2
    Format settings, QPel : No
    Format settings, GMC : No warppoints
    Format settings, Matrix : Default (H.263)
    Codec ID : XVID
    Codec ID/Hint : XviD
    Duration : 1h 34mn
    Bit rate : 2 904 Kbps
    Width : 720 pixels
    Height : 304 pixels
    Display aspect ratio : 2.35:1
    Frame rate : 23.976 fps
    Color space : YUV
    Chroma subsampling : 4:2:0
    Bit depth : 8 bits
    Scan type : Progressive
    Compression mode : Lossy
    Bits/(Pixel*Frame) : 0.553
    Stream size : 1.91 GiB (88%)
    Writing library : XviD 1.2.1 (UTC 2008-12-04)

    Audio
    ID : 1
    Format : AC-3
    Format/Info : Audio Coding 3
    Mode extension : CM (complete main)
    Codec ID : 2000
    Duration : 1h 34mn
    Bit rate mode : Constant
    Bit rate : 384 Kbps
    Channel(s) : 6 channels
    Channel positions : Front: L C R, Side: L R, LFE
    Sampling rate : 48.0 KHz
    Bit depth : 16 bits
    Compression mode : Lossy
    Stream size : 259 MiB (12%)
    Alignment : Aligned on interleaves
    Interleave, duration : 64 ms (1.53 video frames)
    Interleave, preload duration : 192 ms
    Title : 00001.dga PID 1100 3_2ch 48KHz 640Kbps DELAY 0ms_new



    Nazwa pliku: Chained.2012.BDRiP.AC3-5.1.READNFO.XviD-AXED.avi
    Ilość plików na koncie: 247
    Rozmiar segmentu: 9 MB
    Wielkość uploadu: 2.17
    Ilość mirrorów: 10
    Hasło: www.ufs.pl

    Masz problem z programem MoorHunt? Zajrzyj do działu Poradniki & FAQ tego programu.
    Zalecamy pobieranie za pomocą MailShare







    Przepraszamy, ale nie możesz zobaczyć tego tematu. Musisz sie Zarejestrować
    albo Zalogować

    Upload wykonany w MH 0.6.7.2


    מֶלֶך


  2. Liczba osób które doceniły autora: 1


  3.    Sponsored Links




  4. #2
    Retired Awatar SilentDeVir
     Info : 
    Dołączył
    Oct 2007
    Skąd
    Krzeszów
    Posty
    2,360
     Podziękowania : 
    Podziękował: 278
    Doceniono: 455 razy w 120 postach
     UFS Stats Uploady : 
    Filmy: 128
    Gry: 44
    TV's: 15
    Muzyka: 5
    Porno: 21
    Inne: 2
    Małe uploady: 1
     UFS Stats Konta : 
    Gmail: 32
    Inne: 386
     Total Upload : 
    P2M UP: 777.45 GB
     Total CA : 
    Total CA: 25320 AC
    SilentDeVir jest nieaktywny

    Domyślnie

    Ostatnio edytowane przez SilentDeVir ; 25-09-2012 o 22:38

  5. #3
    Full Member
     Info : 
    Dołączył
    Sep 2008
    Posty
    127
     Podziękowania : 
    Podziękował: 123
    Doceniono: 0 razy w 0 postach
    ada15081988 jest nieaktywny

    Domyślnie

    brak napisów :(

Informacje o wątku

Użytkownicy przeglądający ten wątek

Aktualnie 1 użytkownik(ów) przegląda ten wątek. (0 zarejestrowany(ch) oraz 1 gości)

Podobne wątki

  1. 0.7GB Chained [2012][DVDRip][ENG][Napisy PL]
    Przez Pan Tadeusz w dziale HQ (High Quality - Wysoka Jakość)
    Odpowiedzi: 1
    Ostatni post / autor: 26-10-2012, 22:19
  2. The Vow [2012][BDRip][AC3][ENG]
    Przez eMPeK w dziale HQ (High Quality - Wysoka Jakość)
    Odpowiedzi: 1
    Ostatni post / autor: 08-06-2012, 00:02

Uprawnienia umieszczania postów

  • Nie możesz zakładać nowych tematów
  • Nie możesz pisać wiadomości
  • Nie możesz dodawać załączników
  • Nie możesz edytować swoich postów
  •