Aktualizacje seriali
 



Ogłoszenia
UFS - dotacje
Dotacje SMS
Jak korzystać z forumowej szukajki



Pokaż wyniki od 1 do 2 z 2

Wątek: Cherry Bomb [2011][DVDRip][ENG]

  1. #1
    Retired Awatar Look
     Info : 
    Dołączył
    Jan 2008
    Posty
    4,495
     Podziękowania : 
    Podziękował: 922
    Doceniono: 20,526 razy w 334 postach
     UFS Stats Uploady : 
    Filmy: 595
    Gry: 59
    Programy: 1
    TV's: 72
    Muzyka: 13
    Porno: 1
    Inne: 4
     UFS Stats Konta : 
    Gmail: 172
    Inne: 121
     Total Upload : 
    P2M UP: 2456.2 GB
     Total CA : 
    Total CA: 8670 AC
    Look jest nieaktywny

    mh Cherry Bomb [2011][DVDRip][ENG]

    Cherry Bomb



    Produkcja: USA
    Data Premiery: 2011
    Reżyseria: Kyle Day
    Scenariusz: Garrett Hargrove
    Czas trwania: 84min
    Dystrybucja: USA
    Gatunek: Akcji




    Cherry Bomb follows a young dancer and her quest for revenge against the group of men that brutally assaulted her. Seeing no justice coming from within the system Cherry enlists the help of her estranged older brother and some heavy firepower as the two siblings set out on a reckless revenge mission. Things start to spiral out of control when a mysterious hit man named Bull is hired to put an end to Cherry's bloody tirade. She soon realizes that there is more at stake than she ever imagined. Starring Julin Jean, Nick Manning, Denise Williamson, and John Gabriel Rodriquez.



    Nick Manning,
    Alan Brady,
    Jeremy James
    Douglas Norton,
    Dave Buckman,
    Salvador Perez,
    Aaron Alexander,
    Tony Bottorff,
    D.J. Morrison,
    John Rodriguez







    Video
    ID : 0
    Format : MPEG-4 Visual
    Format profile : Advanced Simple@L5
    Format settings, BVOP : 2
    Format settings, QPel : Yes
    Format settings, GMC : No warppoints
    Format settings, Matrix : Default (H.263)
    Codec ID : XVID
    Codec ID/Hint : XviD
    Duration : 1h 22mn
    Bit rate : 1 500 Kbps
    Width : 720 pixels
    Height : 304 pixels
    Display aspect ratio : 2.35:1
    Frame rate : 23.976 fps
    Color space : YUV
    Chroma subsampling : 4:2:0
    Bit depth : 8 bits
    Scan type : Progressive
    Compression mode : Lossy
    Bits/(Pixel*Frame) : 0.286
    Stream size : 880 MiB (79%)
    Writing library : XviD 1.2.1 (UTC 2008-12-04)

    Audio
    ID : 1
    Format : AC-3
    Format/Info : Audio Coding 3
    Mode extension : CM (complete main)
    Format settings, Endianness : Big
    Codec ID : 2000
    Duration : 1h 22mn
    Bit rate mode : Constant
    Bit rate : 384 Kbps
    Channel(s) : 6 channels
    Channel positions : Front: L C R, Side: L R, LFE
    Sampling rate : 48.0 KHz
    Bit depth : 16 bits
    Compression mode : Lossy
    Stream size : 225 MiB (20%)
    Alignment : Aligned on interleaves
    Interleave, duration : 64 ms (1.53 video frames)
    Interleave, preload duration : 192 ms
    Title : Cherry Bomb (2011) SLiCK



    Nazwa pliku: Cherry Bomb (2011) DVDRip XviD SLiCK.avi
    Ilość plików na koncie: 159
    Rozmiar segmentu: 7MB
    Wielkość uploadu: 1,08GB
    Ilość mirrorów: 9
    Hasło: www.ufs.pl

    Masz problem z programem MoorHunt? Zajrzyj do działu Poradniki & FAQ tego programu.
    Zalecamy pobieranie za pomocą MailShare







    Przepraszamy, ale nie możesz zobaczyć tego tematu. Musisz sie Zarejestrować
    albo Zalogować

    Upload wykonany w MH 0.6.7.2


    MEMBER > FULL MEMBER > UFS TRIAL > KREATOR > FULL MEMBER > UFS TRIAL > UPLOADER > SUPER UPLOADER > UFS ELITE>MODERATOR>


    +


  2.    Sponsored Links




  3. #2
    Masterix Awatar Santi
     Info : 
    Dołączył
    Oct 2008
    Posty
    4,459
     Podziękowania : 
    Podziękował: 593
    Doceniono: 26,939 razy w 338 postach
     UFS Stats Uploady : 
    Filmy: 646
    Gry: 46
    Programy: 1
    TV's: 40
    Muzyka: 3
    Inne: 3
     UFS Stats Konta : 
    Gmail: 47
    Inne: 58
     Total Upload : 
    P2M UP: 1136.7 GB
     Total CA : 
    Total CA: 1980 AC
    Santi jest nieaktywny

    Domyślnie

    niezatwierdzone



    !! Wzajemny Szacunek podstawą sprawnego działania Forum !!

Informacje o wątku

Użytkownicy przeglądający ten wątek

Aktualnie 1 użytkownik(ów) przegląda ten wątek. (0 zarejestrowany(ch) oraz 1 gości)

Podobne wątki

  1. Bomb Squad [2011][DVDRip][AC3][ENG]
    Przez Look w dziale HQ (High Quality - Wysoka Jakość)
    Odpowiedzi: 1
    Ostatni post / autor: 07-04-2012, 07:58

Uprawnienia umieszczania postów

  • Nie możesz zakładać nowych tematów
  • Nie możesz pisać wiadomości
  • Nie możesz dodawać załączników
  • Nie możesz edytować swoich postów
  •