Aktualizacje seriali
 



Ogłoszenia
UFS - dotacje
Dotacje SMS
Jak korzystać z forumowej szukajki



Pokaż wyniki od 1 do 2 z 2

Wątek: Flicka 3 [2012][DVDRip][AC3][ENG]

  1. #1
    Retired Awatar Look
     Info : 
    Dołączył
    Jan 2008
    Posty
    4,495
     Podziękowania : 
    Podziękował: 922
    Doceniono: 20,527 razy w 334 postach
     UFS Stats Uploady : 
    Filmy: 595
    Gry: 59
    Programy: 1
    TV's: 72
    Muzyka: 13
    Porno: 1
    Inne: 4
     UFS Stats Konta : 
    Gmail: 172
    Inne: 121
     Total Upload : 
    P2M UP: 2456.2 GB
     Total CA : 
    Total CA: 8670 AC
    Look jest nieaktywny

    mh Flicka 3 [2012][DVDRip][AC3][ENG]

    Flicka 3



    Produkcja: USA
    Data Premiery: 2012 (świat)
    Reżyseria: Michael Damian
    Scenariusz: Jennifer Robinson
    Czas trwania: 111 minut
    Gatunek: Familijny
    Ocena: 4.0



    Carrie McLaughlin (Tammin Sursok) to pospolita, miejska nastolatka, której życie się zmienia, kiedy przyjeżdża na farmę do swojego ojca w Wyoming. Tam spotyka Flicka, dzikiego, pełnego wdzięku, czarnego mustanga, który tak samo jak ona najbardziej ceni sobie wolność. Miłość do konia pomaga jej zmienić przekonania o życiu i otworzyć swoje serce. Lecz, kiedy życiu Flika będzie grozić niebezpieczeństwo, Carrie gotowa będzie zrobić wszystko, by uratować życie najlepszego przyjaciela... (tompawel)



    Carrie McLaughlin - Tammin Sursok
    Hank - Patrick Warburton
    Jake - Reilly Dolman
    Amy Walker - Emily Tennant
    Toby - Clint Black
    HD Walker - Ted Whittall
    Pete - Craig Stanghetta
    Tucker - Dwayne Wiley







    Video
    ID : 0
    Format : MPEG-4 Visual
    Format profile : Advanced Simple@L5
    Format settings, BVOP : Yes
    Format settings, QPel : No
    Format settings, GMC : No warppoints
    Format settings, Matrix : Custom
    Codec ID : XVID
    Codec ID/Hint : XviD
    Duration : 1h 30mn
    Bit rate : 1691kbps
    Width : 680pixels
    Height : 384pixels
    Display aspect ratio : 16:9
    Frame rate : 23.997fps
    Color space : YUV
    Chroma subsampling : 4:2:0
    Bit depth : 8 bits
    Scan type : Progressive
    Bits/(Pixel*Frame) : 0.234
    Stream size : 892 MiB (86%)
    Writing library : XviD 1.2.1 (UTC 2008-12-04)

    Audio
    ID : 1
    Format : AC3
    Format/Info : MPEG
    Mode extension : CM (complete main)
    Codec ID : 2000
    Duration : 1h 30mn
    Bit rate mode : Constant
    Bit rate : 448kbps
    Channel(s) : 6channels
    Channel positions : Front: L R C LFE
    Sampling rate : 48.0 KHz
    Bit depth : 16 bits
    Stream size : 302 MiB
    Alignment : Aligned on interleaves
    Interleave, duration : 42 ms (1.00 video frame)
    Interleave, preload duration : 512 ms



    Nazwa pliku: f3cpUnKnOwN.avi
    Ilość plików na koncie: 180
    Rozmiar segmentu: 7MB
    Wielkość uploadu: 1,22GB
    Ilość mirrorów: 9
    Hasło: www.ufs.pl

    Masz problem z programem MoorHunt? Zajrzyj do działu Poradniki & FAQ tego programu.
    Zalecamy pobieranie za pomocą MailShare







    Przepraszamy, ale nie możesz zobaczyć tego tematu. Musisz sie Zarejestrować
    albo Zalogować

    Upload wykonany w MH 0.6.7.2
    Ostatnio edytowane przez Młody ; 06-05-2012 o 09:29


    MEMBER > FULL MEMBER > UFS TRIAL > KREATOR > FULL MEMBER > UFS TRIAL > UPLOADER > SUPER UPLOADER > UFS ELITE>MODERATOR>


    +


  2. Liczba osób które doceniły autora: 1


  3.    Sponsored Links




  4. #2
    Retired Awatar Młody
     Info : 
    Dołączył
    Feb 2008
    Skąd
    Urzejowice
    Posty
    2,285
     Podziękowania : 
    Podziękował: 42
    Doceniono: 319 razy w 96 postach
     UFS Stats Uploady : 
    Filmy: 67
    Gry: 24
    TV's: 34
    Muzyka: 58
    Porno: 2
     UFS Stats Konta : 
    Gmail: 122
    Inne: 237
     Total Upload : 
    P2M UP: 556.7 GB
     Total CA : 
    Total CA: 10670 AC
    Młody jest nieaktywny

    Domyślnie

    niezatwierdzone
    Ostatnio edytowane przez Młody ; 06-05-2012 o 09:48




Informacje o wątku

Użytkownicy przeglądający ten wątek

Aktualnie 1 użytkownik(ów) przegląda ten wątek. (0 zarejestrowany(ch) oraz 1 gości)

Uprawnienia umieszczania postów

  • Nie możesz zakładać nowych tematów
  • Nie możesz pisać wiadomości
  • Nie możesz dodawać załączników
  • Nie możesz edytować swoich postów
  •