Aktualizacje seriali
 



Ogłoszenia
UFS - dotacje
Dotacje SMS
Jak korzystać z forumowej szukajki



Pokaż wyniki od 1 do 2 z 2

Wątek: Asylum Blackout [2011][DVDScr][ENG]

  1. #1
    Retired Awatar Look
     Info : 
    Dołączył
    Jan 2008
    Posty
    4,498
     Podziękowania : 
    Podziękował: 925
    Doceniono: 20,533 razy w 334 postach
     UFS Stats Uploady : 
    Filmy: 595
    Gry: 59
    Programy: 1
    TV's: 72
    Muzyka: 13
    Porno: 1
    Inne: 4
     UFS Stats Konta : 
    Gmail: 172
    Inne: 121
     Total Upload : 
    P2M UP: 2456.2 GB
     Total CA : 
    Total CA: 8670 AC
    Look jest nieaktywny

    mh Asylum Blackout [2011][DVDScr][ENG]

    Asylum Blackout



    Produkcja: USA, Francja, Belgia
    Data Premiery: 2012
    Reżyseria: Alexandre Courtes
    Scenariusz: S. Craig Zahler, Jérôme Fansten
    Czas trwania: 85min
    Gatunek: Thiller



    Grupa kucharzy, pracujących w zakładzie psychiatrycznym dla morderców, za sprawą potężnej burzy zostaje uwięziona razem ze skazańcami. Bohaterowie wkrótce zdają sobie sprawę, że czeka ich zaciekła walka na śmierć i życie.



    Anna Skellern, Rupert Evans, Dave Legeno, Richard Brake







    Video
    ID : 0
    Format : MPEG-4 Visual
    Format profile : Advanced Simple@L5
    Format settings, BVOP : 2
    Format settings, QPel : No
    Format settings, GMC : No warppoints
    Format settings, Matrix : Default (H.263)
    Muxing mode : Packed bitstream
    Codec ID : XVID
    Codec ID/Hint : XviD
    Duration : 1h 25mn
    Bit rate : 1 901 Kbps
    Width : 720 pixels
    Height : 304 pixels
    Display aspect ratio : 2.35:1
    Frame rate : 23.976 fps
    Color space : YUV
    Chroma subsampling : 4:2:0
    Bit depth : 8 bits
    Scan type : Progressive
    Compression mode : Lossy
    Bits/(Pixel*Frame) : 0.362
    Stream size : 1.13 GiB (83%)
    Writing library : XviD 1.1.2 (UTC 2006-11-01)

    Audio
    ID : 1
    Format : AC-3
    Format/Info : Audio Coding 3
    Mode extension : CM (complete main)
    Codec ID : 2000
    Duration : 1h 25mn
    Bit rate mode : Constant
    Bit rate : 384 Kbps
    Channel(s) : 2 channels
    Channel positions : Front: L R
    Sampling rate : 48.0 KHz
    Bit depth : 16 bits
    Compression mode : Lossy
    Stream size : 234 MiB (17%)
    Alignment : Aligned on interleaves
    Interleave, duration : 64 ms (1.53 video frames)
    Interleave, preload duration : 192 ms
    Title : VTS_01_1 T80 2_0ch 384Kbps DELAY



    Nazwa pliku: Asylum.Blackout.2011.DVDSCR.AC3-2.0.XviD-SiC.avi
    Ilość plików na koncie: 200
    Rozmiar segmentu: 7MB
    Wielkość uploadu: 1,36GB
    Ilość mirrorów: 9
    Hasło: www.ufs.pl

    Masz problem z programem MoorHunt? Zajrzyj do działu Poradniki & FAQ tego programu.
    Zalecamy pobieranie za pomocą MailShare







    Przepraszamy, ale nie możesz zobaczyć tego tematu. Musisz sie Zarejestrować
    albo Zalogować

    Upload wykonany w MH 0.6.7.2
    Ostatnio edytowane przez Look ; 06-05-2012 o 10:40


    MEMBER > FULL MEMBER > UFS TRIAL > KREATOR > FULL MEMBER > UFS TRIAL > UPLOADER > SUPER UPLOADER > UFS ELITE>MODERATOR>


    +


  2.    Sponsored Links




  3. #2
    Retired Awatar Młody
     Info : 
    Dołączył
    Feb 2008
    Skąd
    Urzejowice
    Posty
    2,285
     Podziękowania : 
    Podziękował: 42
    Doceniono: 319 razy w 96 postach
     UFS Stats Uploady : 
    Filmy: 67
    Gry: 24
    TV's: 34
    Muzyka: 58
    Porno: 2
     UFS Stats Konta : 
    Gmail: 122
    Inne: 237
     Total Upload : 
    P2M UP: 556.7 GB
     Total CA : 
    Total CA: 10670 AC
    Młody jest nieaktywny

    Domyślnie

    niezatwierdzone
    Ostatnio edytowane przez Młody ; 06-05-2012 o 12:02




Informacje o wątku

Użytkownicy przeglądający ten wątek

Aktualnie 1 użytkownik(ów) przegląda ten wątek. (0 zarejestrowany(ch) oraz 1 gości)

Uprawnienia umieszczania postów

  • Nie możesz zakładać nowych tematów
  • Nie możesz pisać wiadomości
  • Nie możesz dodawać załączników
  • Nie możesz edytować swoich postów
  •