Aktualizacje seriali
 



Ogłoszenia
UFS - dotacje
Dotacje SMS
Jak korzystać z forumowej szukajki



Pokaż wyniki od 1 do 2 z 2

Wątek: Mission: Impossible - Ghost Protocol [2011][Blu-Ray][1080p][AC3][LEK-PL][Napisy PL]

  1. #1
    SuperVIP Awatar adam12
     Info : 
    Dołączył
    Jul 2007
    Posty
    1,674
     Podziękowania : 
    Podziękował: 109
    Doceniono: 395 razy w 206 postach
     UFS Stats Uploady : 
    Filmy: 550
    Gry: 1
    TV's: 4
    Muzyka: 86
    Inne: 4
     UFS Stats Konta : 
    Gmail: 112
    Inne: 46
     Total Upload : 
    P2M UP: 1797.55 GB
     Total CA : 
    Total CA: 2395 AC
    adam12 jest nieaktywny

    Ygoow Mission: Impossible - Ghost Protocol [2011][Blu-Ray][1080p][AC3][LEK-PL][Napisy PL]

    Mission: Impossible - Ghost Protocol




    Produkcja: USA | Zjednoczone Emiraty Arabskie
    Data Premiery: 2011-12-26 (kino), 2011-12-07 (świat), 2012-05-16 (dvd)
    Reżyseria: Brad Bird
    Scenariusz: Josh Appelbaum, André Nemec
    Czas trwania: 133 minut
    Dystrybucja: UIP - United International Pictures
    Gatunek: Thriller | Przygodowy | Akcja
    Ocena: 6.9



    W czwartej części Mission: Impossible o podtytule \"Ghost Protocol\" służba specjalna rządu Stanów Zjednoczonych - IMF (Impossible Mission Force) zostaje zlikwidowana, po tym jak wiążę się ją z podłożeniem bomby na Kremlu, w następstwie zdarzeń Ethan Hunt (Tom Cruise) wraz ze swoją nową ekipą wyrusza na kolejną misję, aby oczyścić dobre imię swojej organizacji. (Ronaldinho)



    Ethan Hunt - Tom Cruise
    Jane Carter - Paula Patton
    Benji Dunn - Simon Pegg
    William Brandt - Jeremy Renner
    Kurt Hendricks - Michael Nyqvist
    Anatoli Sidorow - Vladimir Mashkov
    Wistrom - Samuli Edelmann
    Leonid Lisenker - Ivan Shvedoff









    Format : Matroska
    Format version : Version 2
    File size : 9.32 GiB
    Duration : 2h 12mn
    Overall bit rate : 10.0 Mbps
    Movie name : Mission: Impossible 4 Ghost Protocol FilmyHD.net
    Encoded date : UTC 2012-04-26 20:20:54
    Writing application : mkvmerge v3.0.0 (\'Hang up your Hang-Ups\') built on Dec 12 2009 15:20:35
    Writing library : libebml v0.7.9 + libmatroska v0.8.1

    Video
    ID : 1
    Format : AVC
    Format/Info : Advanced Video Codec
    Format profile : High@L4.1
    Format settings, CABAC : Yes
    Format settings, ReFrames : 5 frames
    Codec ID : V_MPEG4/ISO/AVC
    Duration : 2h 12mn
    Bit rate : 8 769 Kbps
    Width : 1 920 pixels
    Height : 800 pixels
    Display aspect ratio : 2.40:1
    Frame rate : 23.976 fps
    Color space : YUV
    Chroma subsampling : 4:2:0
    Bit depth : 8 bits
    Scan type : Progressive
    Bits/(Pixel*Frame) : 0.238
    Stream size : 7.95 GiB (85%)
    Title : Mission: Impossible 4 Ghost Protocol FilmyHD.net
    Writing library : x264 core 122 r2184 5c85e0a
    Language : English
    Default : Yes
    Forced : No

    Audio #1
    ID : 2
    Format : AC-3
    Format/Info : Audio Coding 3
    Mode extension : CM (complete main)
    Codec ID : A_AC3
    Duration : 2h 12mn
    Bit rate mode : Constant
    Bit rate : 640 Kbps
    Channel(s) : 6 channels
    Channel positions : Front: L C R, Side: L R, LFE
    Sampling rate : 48.0 KHz
    Bit depth : 16 bits
    Compression mode : Lossy
    Stream size : 609 MiB (6%)
    Title : Polish AC3 FilmyHD.net
    Language : Polish
    Default : Yes
    Forced : No

    Audio #2
    ID : 3
    Format : AC-3
    Format/Info : Audio Coding 3
    Mode extension : CM (complete main)
    Codec ID : A_AC3
    Duration : 2h 12mn
    Bit rate mode : Constant
    Bit rate : 640 Kbps
    Channel(s) : 6 channels
    Channel positions : Front: L C R, Side: L R, LFE
    Sampling rate : 48.0 KHz
    Bit depth : 16 bits
    Compression mode : Lossy
    Stream size : 609 MiB (6%)
    Title : English AC3 FilmyHD.net
    Language : English
    Default : No
    Forced : No

    Text #1
    ID : 4
    Format : UTF-8
    Codec ID : S_TEXT/UTF8
    Codec ID/Info : UTF-8 Plain Text
    Title : Polish subs FilmyHD.net
    Language : Polish
    Default : No
    Forced : No

    Text #2
    ID : 5
    Format : UTF-8
    Codec ID : S_TEXT/UTF8
    Codec ID/Info : UTF-8 Plain Text
    Title : English subs
    Language : English
    Default : No
    Forced : No




    Nazwa pliku: Mission Impossible Ghost Protocol (2011) PL.1080p.BluRay.x264.part1 / 7.rar
    Rozmiar pliku: 6 x 1,56 GB / 1 x 991,12 MB
    Liczba źródeł: 7 x 10
    Liczba segmentów: 6 x 229 / 1 x 142

    Hasło: www.ufs.pl

    Masz problem z programem Ygoow? Zajrzyj do działu Poradniki & FAQ tego programu.






    Przepraszamy, ale nie możesz zobaczyć tego tematu. Musisz sie Zarejestrować
    albo Zalogować

    Upload zawiera 10% danych naprawczych!
    Jak korzystać z danych naprawczych? Tutaj znajdziesz poradnik!
    Upload wykonany w YG 0.6d2
    Ostatnio edytowane przez jeep ; 19-10-2016 o 22:30

  2.    Sponsored Links




  3. #2
    Masterix Awatar Santi
     Info : 
    Dołączył
    Oct 2008
    Posty
    4,459
     Podziękowania : 
    Podziękował: 593
    Doceniono: 26,938 razy w 338 postach
     UFS Stats Uploady : 
    Filmy: 646
    Gry: 46
    Programy: 1
    TV's: 40
    Muzyka: 3
    Inne: 3
     UFS Stats Konta : 
    Gmail: 47
    Inne: 58
     Total Upload : 
    P2M UP: 1136.7 GB
     Total CA : 
    Total CA: 1980 AC
    Santi jest nieaktywny

    Domyślnie

    Ostatnio edytowane przez Santi ; 05-05-2012 o 10:55



    !! Wzajemny Szacunek podstawą sprawnego działania Forum !!

Informacje o wątku

Użytkownicy przeglądający ten wątek

Aktualnie 1 użytkownik(ów) przegląda ten wątek. (0 zarejestrowany(ch) oraz 1 gości)

Uprawnienia umieszczania postów

  • Nie możesz zakładać nowych tematów
  • Nie możesz pisać wiadomości
  • Nie możesz dodawać załączników
  • Nie możesz edytować swoich postów
  •