Aktualizacje seriali
 



Ogłoszenia
UFS - dotacje
Dotacje SMS
Jak korzystać z forumowej szukajki



Pokaż wyniki od 1 do 2 z 2

Wątek: Game of Thrones [s02e05][2012][HDTV][ENG]

  1. #1
    Retired Awatar Look
     Info : 
    Dołączył
    Jan 2008
    Posty
    4,498
     Podziękowania : 
    Podziękował: 925
    Doceniono: 20,531 razy w 334 postach
     UFS Stats Uploady : 
    Filmy: 595
    Gry: 59
    Programy: 1
    TV's: 72
    Muzyka: 13
    Porno: 1
    Inne: 4
     UFS Stats Konta : 
    Gmail: 172
    Inne: 121
     Total Upload : 
    P2M UP: 2456.2 GB
     Total CA : 
    Total CA: 8670 AC
    Look jest nieaktywny

    mh Game of Thrones [s02e05][2012][HDTV][ENG]

    Game of Thrones [s02e05]
    Gra o tron




    Produkcja: Wielka Brytania | USA
    Data Premiery: 1 kwietnia 2012
    Reżyseria: Brian Kirk, Daniel Minahan
    Scenariusz: George R.R. Martin (również) (powieści "Gra o tron", "Starcie królów" i "Nawałnica mieczy"), Jane Espenson
    Czas trwania: odc.: 60 minut
    Gatunek: Dramat | Akcja | Przygodowy | Thriller | Fantasy
    Ocena: 8.6



    Robert Baratheon, król Zachodnich Krain, proponuje swojemu staremu przyjacielowi Eddardowi Starkowi funkcję namiestnika królestwa. Eddard podejrzewający, że jego poprzednik został zamordowany, przyjmuje propozycje króla, aby odkryć prawdę o morderstwie. Okazuje się, że w sprawę zamieszana jest rodzina królowej - Lannisterowie, którzy chcą przejąć władzę. Tymczasem za morzem, ostatni żyjący potomkowie zdetronizowanej dynastii Targaryenów planują powrót do kraju i ponowne przejęcie władzy. (arksi)



    Lord Eddard "Ned" Stark - Sean Bean
    Lady Catelyn "Cat" Stark - Michelle Fairley
    Jon Snow, syn lorda z nieprawego łoża - Kit Harington
    Robb Stark - Richard Madden
    Król Robert Baratheon - Mark Addy
    Królowa Cersei Lannister - Lena Headey
    Arya Stark - Maisie Williams
    Księżniczka Daenerys "Dany" Targaryen, khaleesi - Emilia Clarke







    Video
    ID : 1
    Format : AVC
    Format/Info : Advanced Video Codec
    Format profile : High@L3.1
    Format settings, CABAC : Yes
    Format settings, ReFrames : 5 frames
    Codec ID : avc1
    Codec ID/Info : Advanced Video Coding
    Duration : 55mn 43s
    Bit rate : 903 Kbps
    Width : 720 pixels
    Height : 404 pixels
    Display aspect ratio : 16:9
    Frame rate mode : Constant
    Frame rate : 23.976 fps
    Color space : YUV
    Chroma subsampling : 4:2:0
    Bit depth : 8 bits
    Scan type : Progressive
    Bits/(Pixel*Frame) : 0.130
    Stream size : 360 MiB (87%)
    Writing library : x264 core 122 r2184 5c85e0a
    Encoding settings : cabac=1 / ref=5 / deblock=1:0:0 / analyse=0x3:0x113 / me=umh / subme=8 / psy=1 / psy_rd=1.00:0.00 / mixed_ref=1 / me_range=16 / chroma_me=1 / trellis=1 / 8x8dct=1 / cqm=0 / deadzone=21,11 / fast_pskip=1 / chroma_qp_offset=-2 / threads=18 / sliced_threads=0 / nr=0 / decimate=1 / interlaced=0 / bluray_compat=0 / constrained_intra=0 / bframes=3 / b_pyramid=2 / b_adapt=2 / b_bias=0 / direct=3 / weightb=1 / open_gop=0 / weightp=2 / keyint=250 / keyint_min=23 / scenecut=40 / intra_refresh=0 / rc_lookahead=50 / rc=crf / mbtree=1 / crf=19.0 / qcomp=0.60 / qpmin=0 / qpmax=69 / qpstep=4 / ip_ratio=1.40 / aq=1:1.00
    Encoded date : UTC 2011-09-08 11:43:25
    Tagged date : UTC 2011-09-08 11:43:25
    Matrix coefficients : BT.709-5, BT.1361, IEC 61966-2-4 709, SMPTE RP177

    Audio
    ID : 2
    Format : AAC
    Format/Info : Advanced Audio Codec
    Format profile : LC
    Codec ID : 40
    Duration : 55mn 43s
    Bit rate mode : Variable
    Bit rate : 125 Kbps
    Maximum bit rate : 185 Kbps
    Channel(s) : 2 channels
    Channel positions : Front: L R
    Sampling rate : 48.0 KHz
    Compression mode : Lossy
    Delay relative to video : -3s 337ms
    Stream size : 50.0 MiB (12%)
    Encoded date : UTC 2011-09-08 11:43:25
    Tagged date : UTC 2011-09-08 11:43:25




    Nazwa pliku: Game.of.Thrones.S02E05.HDTV.x264-ASAP.mp4
    Ilość plików na koncie: 59
    Rozmiar segmentu: 7,00 MB
    Wielkość uploadu: 412MB
    Ilość mirrorów: 6
    Hasło: www.ufs.pl

    Masz problem z programem MoorHunt? Zajrzyj do działu Poradniki & FAQ tego programu.
    Zalecamy pobieranie za pomocą MailShare







    Przepraszamy, ale nie możesz zobaczyć tego tematu. Musisz sie Zarejestrować
    albo Zalogować

    Upload wykonany w MH 0.6.7.2
    Ostatnio edytowane przez Look ; 30-04-2012 o 12:08


    MEMBER > FULL MEMBER > UFS TRIAL > KREATOR > FULL MEMBER > UFS TRIAL > UPLOADER > SUPER UPLOADER > UFS ELITE>MODERATOR>


    +


  2.    Sponsored Links




  3. #2
    Full Member Awatar Novy
     Info : 
    Dołączył
    Jun 2010
    Skąd
    Stamtąd
    Posty
    5,953
     Podziękowania : 
    Podziękował: 588
    Doceniono: 42,189 razy w 871 postach
     UFS Stats Uploady : 
    Filmy: 147
    Gry: 143
    Programy: 18
    TV's: 40
    Muzyka: 18
    Porno: 869
    Inne: 2
    Małe uploady: 17
     UFS Stats Konta : 
    Gmail: 41
    Inne: 216
     Total Upload : 
    P2M UP: 2181.55 GB
     Total CA : 
    Total CA: 4105 AC
    Novy jest nieaktywny

    Domyślnie

    niezatwierdzone
    Ostatnio edytowane przez Novy ; 30-04-2012 o 12:12

Informacje o wątku

Użytkownicy przeglądający ten wątek

Aktualnie 1 użytkownik(ów) przegląda ten wątek. (0 zarejestrowany(ch) oraz 1 gości)

Podobne wątki

  1. Game of Thrones [s02e06][2012][HDTV][ENG]
    Przez Look w dziale Pojedyncze Odcinki
    Odpowiedzi: 1
    Ostatni post / autor: 07-05-2012, 14:13
  2. Game of Thrones [s02e04][2012][HDTV][ENG]
    Przez Look w dziale Pojedyncze Odcinki
    Odpowiedzi: 1
    Ostatni post / autor: 23-04-2012, 09:46
  3. Game of Thrones [s02e03][2012][HDTV][ENG]
    Przez Look w dziale Pojedyncze Odcinki
    Odpowiedzi: 2
    Ostatni post / autor: 21-04-2012, 14:14
  4. Game of Thrones [s02e01][2012][HDTV][ENG]
    Przez Look w dziale Pojedyncze Odcinki
    Odpowiedzi: 1
    Ostatni post / autor: 02-04-2012, 13:41

Uprawnienia umieszczania postów

  • Nie możesz zakładać nowych tematów
  • Nie możesz pisać wiadomości
  • Nie możesz dodawać załączników
  • Nie możesz edytować swoich postów
  •