Aktualizacje seriali
 



Ogłoszenia
UFS - dotacje
Dotacje SMS
Jak korzystać z forumowej szukajki



Pokaż wyniki od 1 do 2 z 2

Wątek: Haywire [2011][BDRip][AC3][ENG]

  1. #1
    Retired Awatar Look
     Info : 
    Dołączył
    Jan 2008
    Posty
    4,495
     Podziękowania : 
    Podziękował: 922
    Doceniono: 20,525 razy w 334 postach
     UFS Stats Uploady : 
    Filmy: 595
    Gry: 59
    Programy: 1
    TV's: 72
    Muzyka: 13
    Porno: 1
    Inne: 4
     UFS Stats Konta : 
    Gmail: 172
    Inne: 121
     Total Upload : 
    P2M UP: 2456.2 GB
     Total CA : 
    Total CA: 8670 AC
    Look jest teraz aktywny

    mh Haywire [2011][BDRip][AC3][ENG]

    Haywire
    Ścigana




    Produkcja: USA | Irlandia
    Data Premiery: 2012-02-24 (kino), 2011-11-07 (świat)
    Reżyseria: Steven Soderbergh
    Scenariusz: Lem Dobbs
    Czas trwania: 93 minut
    Dystrybucja: Monolith Films
    Gatunek: Akcja | Thriller
    Ocena: 5.5



    Grupa wysoko postawionych mężczyzn wprowadza w życie spisek mający na celu eliminację jednej kobiety. Wynik tego starcia okaże się daleki od oczekiwań. Piękna Mallory Kane to tajna superbroń amerykańskich spec służb. W najodleglejszym zakątku świata wykona najtrudniejsze zadanie i nie pozostawi żadnego śladu. Oficjalnie nie istnieje. Nieoficjalnie jest niezastąpiona. Ale tylko do czasu, gdy staje się niewygodna. Pewnego dnia podczas misji Mallory wpada w pułapkę. Wszystko wskazuje na to, że jej mocodawcy postanowili się jej pozbyć i zlecili jej likwidację. Nie docenili jej jednak. Teraz Mallory powraca do gry, by wyrównać rachunki, ukarać winnych i ocalić swoich najbliższych. (opis dystrybutora)



    Mallory Kane - Gina Carano
    Scott - Michael Angarano
    Aaron - Channing Tatum
    Coblenz - Michael Douglas
    Rodrigo - Antonio Banderas
    Kenneth - Ewan McGregor
    Barroso - Eddie J. Fernandez
    Jamie - Aaron Cohen









    Video
    ID : 0
    Format : MPEG-4 Visual
    Format profile : Advanced Simple@L5
    Format settings, BVOP : 1
    Format settings, QPel : No
    Format settings, GMC : No warppoints
    Format settings, Matrix : Default (H.263)
    Codec ID : XVID
    Codec ID/Hint : XviD
    Duration : 1h 32mn
    Bit rate : 831 Kbps
    Width : 640 pixels
    Height : 264 pixels
    Display aspect ratio : 2.40:1
    Frame rate : 23.976 fps
    Color space : YUV
    Chroma subsampling : 4:2:0
    Bit depth : 8 bits
    Scan type : Progressive
    Compression mode : Lossy
    Bits/(Pixel*Frame) : 0.205
    Stream size : 552 MiB (65%)
    Writing library : XviD 1.2.1 (UTC 2008-12-04)

    Audio
    ID : 1
    Format : AC-3
    Format/Info : Audio Coding 3
    Mode extension : CM (complete main)
    Codec ID : 2000
    Duration : 1h 32mn
    Bit rate mode : Constant
    Bit rate : 448 Kbps
    Channel(s) : 6 channels
    Channel positions : Front: L C R, Side: L R, LFE
    Sampling rate : 48.0 KHz
    Bit depth : 16 bits
    Compression mode : Lossy
    Stream size : 298 MiB (35%)
    Alignment : Aligned on interleaves
    Interleave, duration : 42 ms (1.00 video frame)
    Interleave, preload duration : 512 ms



    Nazwa pliku: Haywire.2011.BRRip.XviD.Ac3.Feel-Free.avi
    Ilość plików na koncie: 123
    Rozmiar segmentu: 7MB
    Wielkość uploadu: 856MB
    Ilość mirrorów: 9
    Hasło: www.ufs.pl

    Masz problem z programem MoorHunt? Zajrzyj do działu Poradniki & FAQ tego programu.
    Zalecamy pobieranie za pomocą MailShare







    Przepraszamy, ale nie możesz zobaczyć tego tematu. Musisz sie Zarejestrować
    albo Zalogować

    Upload wykonany w MH 0.6.7.2


    MEMBER > FULL MEMBER > UFS TRIAL > KREATOR > FULL MEMBER > UFS TRIAL > UPLOADER > SUPER UPLOADER > UFS ELITE>MODERATOR>


    +


  2.    Sponsored Links




  3. #2
    Full Member Awatar Novy
     Info : 
    Dołączył
    Jun 2010
    Skąd
    Stamtąd
    Posty
    5,953
     Podziękowania : 
    Podziękował: 588
    Doceniono: 42,187 razy w 871 postach
     UFS Stats Uploady : 
    Filmy: 147
    Gry: 143
    Programy: 18
    TV's: 40
    Muzyka: 18
    Porno: 869
    Inne: 2
    Małe uploady: 17
     UFS Stats Konta : 
    Gmail: 41
    Inne: 216
     Total Upload : 
    P2M UP: 2181.55 GB
     Total CA : 
    Total CA: 4105 AC
    Novy jest nieaktywny

    Domyślnie

    niezatwierdzone
    Ostatnio edytowane przez Novy ; 19-04-2012 o 15:20

Informacje o wątku

Użytkownicy przeglądający ten wątek

Aktualnie 1 użytkownik(ów) przegląda ten wątek. (0 zarejestrowany(ch) oraz 1 gości)

Podobne wątki

  1. 0.7GB Haywire [2011][BDRip][ENG]
    Przez Bull w dziale HQ (High Quality - Wysoka Jakość)
    Odpowiedzi: 1
    Ostatni post / autor: 27-05-2012, 19:43
  2. 0.7GB Haywire [2011][BRRip][ENG][Napisy PL]
    Przez Stachu w dziale HQ (High Quality - Wysoka Jakość)
    Odpowiedzi: 1
    Ostatni post / autor: 16-05-2012, 13:52
  3. 0.7GB Haywire [2011][R5][ENG]
    Przez Igrek w dziale HQ (High Quality - Wysoka Jakość)
    Odpowiedzi: 1
    Ostatni post / autor: 21-03-2012, 13:30
  4. 0.7GB Haywire [2011][R5][ENG]
    Przez Santi w dziale HQ (High Quality - Wysoka Jakość)
    Odpowiedzi: 1
    Ostatni post / autor: 21-03-2012, 05:17

Uprawnienia umieszczania postów

  • Nie możesz zakładać nowych tematów
  • Nie możesz pisać wiadomości
  • Nie możesz dodawać załączników
  • Nie możesz edytować swoich postów
  •