Aktualizacje seriali
 



Ogłoszenia
UFS - dotacje
Dotacje SMS
Jak korzystać z forumowej szukajki



Pokaż wyniki od 1 do 3 z 3

Wątek: Game of Thrones [s02e03][2012][HDTV][ENG]

  1. #1
    Retired Awatar Look
     Info : 
    Dołączył
    Jan 2008
    Posty
    4,498
     Podziękowania : 
    Podziękował: 925
    Doceniono: 20,534 razy w 334 postach
     UFS Stats Uploady : 
    Filmy: 595
    Gry: 59
    Programy: 1
    TV's: 72
    Muzyka: 13
    Porno: 1
    Inne: 4
     UFS Stats Konta : 
    Gmail: 172
    Inne: 121
     Total Upload : 
    P2M UP: 2456.2 GB
     Total CA : 
    Total CA: 8670 AC
    Look jest nieaktywny

    mh Game of Thrones [s02e03][2012][HDTV][ENG]

    Game of Thrones [s02e03]
    Gra o tron




    Produkcja: Wielka Brytania | USA
    Data Premiery: 1 kwietnia 2012
    Reżyseria: Brian Kirk, Daniel Minahan
    Scenariusz: George R.R. Martin (również) (powieści "Gra o tron", "Starcie królów" i "Nawałnica mieczy"), Jane Espenson
    Czas trwania: odc.: 60 minut
    Dystrybucja:
    Gatunek: Dramat | Akcja | Przygodowy | Thriller | Fantasy
    Ocena: 8.6



    Robert Baratheon, król Zachodnich Krain, proponuje swojemu staremu przyjacielowi Eddardowi Starkowi funkcję namiestnika królestwa. Eddard podejrzewający, że jego poprzednik został zamordowany, przyjmuje propozycje króla, aby odkryć prawdę o morderstwie. Okazuje się, że w sprawę zamieszana jest rodzina królowej - Lannisterowie, którzy chcą przejąć władzę. Tymczasem za morzem, ostatni żyjący potomkowie zdetronizowanej dynastii Targaryenów planują powrót do kraju i ponowne przejęcie władzy. (arksi)



    Lord Eddard "Ned" Stark - Sean Bean
    Lady Catelyn "Cat" Stark - Michelle Fairley
    Jon Snow, syn lorda z nieprawego łoża - Kit Harington
    Robb Stark - Richard Madden
    Król Robert Baratheon - Mark Addy
    Królowa Cersei Lannister - Lena Headey
    Arya Stark - Maisie Williams
    Księżniczka Daenerys "Dany" Targaryen, khaleesi - Emilia Clarke







    Video
    ID : 1
    Format : AVC
    Format/Info : Advanced Video Codec
    Format profile : High@L3.1
    Format settings, CABAC : Yes
    Format settings, ReFrames : 5 frames
    Codec ID : avc1
    Codec ID/Info : Advanced Video Coding
    Duration : 54mn 12s
    Bit rate : 732 Kbps
    Width : 720 pixels
    Height : 404 pixels
    Display aspect ratio : 16:9
    Frame rate mode : Constant
    Frame rate : 23.976 fps
    Color space : YUV
    Chroma subsampling : 4:2:0
    Bit depth : 8 bits
    Scan type : Progressive
    Bits/(Pixel*Frame) : 0.105
    Stream size : 284 MiB (85%)
    Writing library : x264 core 122 r2184 5c85e0a

    Audio
    ID : 2
    Format : AAC
    Format/Info : Advanced Audio Codec
    Format profile : LC
    Codec ID : 40
    Duration : 54mn 12s
    Bit rate mode : Variable
    Bit rate : 121 Kbps
    Maximum bit rate : 184 Kbps
    Channel(s) : 2 channels
    Channel positions : Front: L R
    Sampling rate : 48.0 KHz
    Compression mode : Lossy
    Stream size : 47.1 MiB (14%)
    Encoded date : UTC 2011-09-08 11:43:25
    Tagged date : UTC 2011-09-08 11:43:25



    Nazwa pliku: Game.of.Thrones.S02E03.HDTV.x264-ASAP
    Ilość plików na koncie: 48
    Rozmiar segmentu: 7,00 MB
    Wielkość uploadu: 333MB
    Ilość mirrorów: 5
    Hasło: www.ufs.pl

    Masz problem z programem MoorHunt? Zajrzyj do działu Poradniki & FAQ tego programu.
    Zalecamy pobieranie za pomocą MailShare







    Przepraszamy, ale nie możesz zobaczyć tego tematu. Musisz sie Zarejestrować
    albo Zalogować

    Upload wykonany w MH 0.6.7.2
    Ostatnio edytowane przez Look ; 16-04-2012 o 09:53


    MEMBER > FULL MEMBER > UFS TRIAL > KREATOR > FULL MEMBER > UFS TRIAL > UPLOADER > SUPER UPLOADER > UFS ELITE>MODERATOR>


    +


  2.    Sponsored Links




  3. #2
    Retired Awatar Młody
     Info : 
    Dołączył
    Feb 2008
    Skąd
    Urzejowice
    Posty
    2,285
     Podziękowania : 
    Podziękował: 42
    Doceniono: 319 razy w 96 postach
     UFS Stats Uploady : 
    Filmy: 67
    Gry: 24
    TV's: 34
    Muzyka: 58
    Porno: 2
     UFS Stats Konta : 
    Gmail: 122
    Inne: 237
     Total Upload : 
    P2M UP: 556.7 GB
     Total CA : 
    Total CA: 10670 AC
    Młody jest nieaktywny

    Domyślnie

    niezatwierdzone




  4. #3
    Full Member
     Info : 
    Dołączył
    Jan 2011
    Posty
    345
     Podziękowania : 
    Podziękował: 289
    Doceniono: 0 razy w 0 postach
    Kanibal jest nieaktywny

    Domyślnie

    yy a kiedy bedzie z lektorem ?

Informacje o wątku

Użytkownicy przeglądający ten wątek

Aktualnie 1 użytkownik(ów) przegląda ten wątek. (0 zarejestrowany(ch) oraz 1 gości)

Podobne wątki

  1. Game of Thrones [s02e06][2012][HDTV][ENG]
    Przez Look w dziale Pojedyncze Odcinki
    Odpowiedzi: 1
    Ostatni post / autor: 07-05-2012, 14:13
  2. Game of Thrones [s02e05][2012][HDTV][ENG]
    Przez Look w dziale Pojedyncze Odcinki
    Odpowiedzi: 1
    Ostatni post / autor: 30-04-2012, 12:08
  3. Game of Thrones [s02e04][2012][HDTV][ENG]
    Przez Look w dziale Pojedyncze Odcinki
    Odpowiedzi: 1
    Ostatni post / autor: 23-04-2012, 09:46
  4. Game of Thrones [s02e01][2012][HDTV][ENG]
    Przez Look w dziale Pojedyncze Odcinki
    Odpowiedzi: 1
    Ostatni post / autor: 02-04-2012, 13:41

Uprawnienia umieszczania postów

  • Nie możesz zakładać nowych tematów
  • Nie możesz pisać wiadomości
  • Nie możesz dodawać załączników
  • Nie możesz edytować swoich postów
  •