Aktualizacje seriali
 



Ogłoszenia
UFS - dotacje
Dotacje SMS
Jak korzystać z forumowej szukajki



Pokaż wyniki od 1 do 5 z 5

Wątek: Contraband [2012][BDRip][AC3][ENG]

  1. #1
    Retired Awatar Look
     Info : 
    Dołączył
    Jan 2008
    Posty
    4,498
     Podziękowania : 
    Podziękował: 925
    Doceniono: 20,534 razy w 334 postach
     UFS Stats Uploady : 
    Filmy: 595
    Gry: 59
    Programy: 1
    TV's: 72
    Muzyka: 13
    Porno: 1
    Inne: 4
     UFS Stats Konta : 
    Gmail: 172
    Inne: 121
     Total Upload : 
    P2M UP: 2456.2 GB
     Total CA : 
    Total CA: 8670 AC
    Look jest nieaktywny

    mh Contraband [2012][BDRip][AC3][ENG]

    Contraband
    Kontrabanda




    Produkcja: USA | Wielka Brytania
    Data Premiery: 2012-01-27 (kino), 2012-01-13 (świat)
    Reżyseria: Baltasar Kormákur
    Scenariusz: Aaron Guzikowski
    Czas trwania: 110 minut
    Dystrybucja: UIP - United International Pictures
    Gatunek: Thriller
    Ocena: 6.8



    Mający kłopoty finansowe pracownik ochrony rozważa powrót do swojej dawnego zajęcia, którym był przemyt. Nadarza się ku temu okazja, kiedy jeden z jego dawnych współpracowników przedstawia mu pomysł na potencjalnie lukratywną akcję... (Perfik)



    Kate Farraday - Kate Beckinsale
    Chris Farraday - Mark Wahlberg
    Kapitan - J.K. Simmons
    Sebastian Abney - Ben Foster
    Tim Briggs - Giovanni Ribisi
    Gonzalo - Diego Luna
    Danny Raymer - Lukas Haas
    Andy - Caleb Landry Jones







    Video
    ID : 0
    Format : MPEG-4 Visual
    Format profile : Advanced Simple@L5
    Format settings, BVOP : Yes
    Format settings, QPel : No
    Format settings, GMC : No warppoints
    Format settings, Matrix : Default (H.263)
    Muxing mode : Packed bitstream
    Codec ID : XVID
    Codec ID/Hint : XviD
    Duration : 1h 49mn
    Bit rate : 1 435 Kbps
    Width : 720 pixels
    Height : 304 pixels
    Display aspect ratio : 2.35:1
    Frame rate : 23.976 fps
    Resolution : 8 bits
    Colorimetry : 4:2:0
    Scan type : Progressive
    Bits/(Pixel*Frame) : 0.273
    Stream size : 1.10 GiB (79%)
    Writing library : XviD 64

    Audio
    ID : 1
    Format : AC-3
    Format/Info : Audio Coding 3
    Format_Settings_ModeExtension : CM (complete main)
    Codec ID : 2000
    Duration : 1h 49mn
    Bit rate mode : Constant
    Bit rate : 384 Kbps
    Channel(s) : 6 channels
    Channel positions : Front: L C R, Side: L R, LFE
    Sampling rate : 48.0 KHz
    Stream size : 301 MiB (21%)
    Alignment : Aligned on interleaves
    Interleave, duration : 64 ms (1.53 video frames)
    Interleave, preload duration : 192 ms



    Nazwa pliku: Contraband.2012.BRRiP.AC3-5.1.XviD-SiC.avi
    Ilość plików na koncie: 205
    Rozmiar segmentu: 7
    Wielkość uploadu: 1,40GB
    Ilość mirrorów: 9
    Hasło: www.ufs.pl

    Masz problem z programem MoorHunt? Zajrzyj do działu Poradniki & FAQ tego programu.
    Zalecamy pobieranie za pomocą MailShare







    Przepraszamy, ale nie możesz zobaczyć tego tematu. Musisz sie Zarejestrować
    albo Zalogować

    Upload wykonany w MH 0.6.7.2


    MEMBER > FULL MEMBER > UFS TRIAL > KREATOR > FULL MEMBER > UFS TRIAL > UPLOADER > SUPER UPLOADER > UFS ELITE>MODERATOR>


    +


  2.    Sponsored Links




  3. #2
    Full Member Awatar Novy
     Info : 
    Dołączył
    Jun 2010
    Skąd
    Stamtąd
    Posty
    5,953
     Podziękowania : 
    Podziękował: 588
    Doceniono: 42,191 razy w 871 postach
     UFS Stats Uploady : 
    Filmy: 147
    Gry: 143
    Programy: 18
    TV's: 40
    Muzyka: 18
    Porno: 869
    Inne: 2
    Małe uploady: 17
     UFS Stats Konta : 
    Gmail: 41
    Inne: 216
     Total Upload : 
    P2M UP: 2181.55 GB
     Total CA : 
    Total CA: 4105 AC
    Novy jest nieaktywny

    Domyślnie

    niezatwierdzone
    Ostatnio edytowane przez Novy ; 12-04-2012 o 15:05

  4. #3
    Full Member
     Info : 
    Dołączył
    Oct 2007
    Skąd
    Katowice
    Posty
    688
     Podziękowania : 
    Podziękował: 678
    Doceniono: 0 razy w 0 postach
    Klakier1964 jest nieaktywny

    Domyślnie

    jak stoi jakość dzwięku??

  5. #4
    Gdzie są pieniądze za las?! Awatar Stachu
     Info : 
    Dołączył
    Oct 2007
    Skąd
    Köln
    Posty
    9,414
     Podziękowania : 
    Podziękował: 243
    Doceniono: 37,523 razy w 1,149 postach
     UFS Stats Uploady : 
    Filmy: 892
    Gry: 597
    Programy: 14
    TV's: 297
    Muzyka: 87
    Porno: 69
    Inne: 66
    Małe uploady: 12
     UFS Stats Konta : 
    Gmail: 205
    Inne: 648
     Total Upload : 
    P2M UP: 8184.15 GB
     Total CA : 
    Total CA: 14861 AC
     Total HTTP Upload : 
    HTTP UP: 0.7 GB
    Stachu jest nieaktywny

    Domyślnie

    Przecież masz napisane... Dźwięk jest ok
    Member -> Full Member -> UFS Trial -> UFS Uploader -> UFS Elite -> Moderator -> UFS Elite -> Super Vip -> Elite Kreator -> Elite Uploader -> Super Vip -> Elite Uploader -> Super Vip
    Intel Core i5 2500 3.3GHz
    SilentiumPC
    Asus H61
    Kingston HyperX 16GB DDR3 1600MHz
    Seagate 500GB
    Toshiba 320GB
    Seagate Desktop HDD 2TB
    GoodRam SSD 120GB
    Gigabyte GeForce 1060 6GB XTreme OC
    Nagrywarka Asus
    Thermaltake Modular SE 530W
    Zalman 3 Plus White



  6. #5
    Full Member Awatar 87kowalsiu
     Info : 
    Dołączył
    Mar 2008
    Skąd
    Łódź
    Posty
    732
     Podziękowania : 
    Podziękował: 708
    Doceniono: 476 razy w 14 postach
     UFS Stats Uploady : 
     Total Upload : 
    P2M UP: 17.8 GB
    87kowalsiu jest nieaktywny

    Domyślnie

    Jeśli szukacie napisów do tego filmu...
    http://hostuje.net/file.php?id=e0269...51c9149a896712

Informacje o wątku

Użytkownicy przeglądający ten wątek

Aktualnie 1 użytkownik(ów) przegląda ten wątek. (0 zarejestrowany(ch) oraz 1 gości)

Podobne wątki

  1. Contraband [2012][DVDScr][AC3][ENG]
    Przez Look w dziale HQ (High Quality - Wysoka Jakość)
    Odpowiedzi: 1
    Ostatni post / autor: 08-04-2012, 12:47

Uprawnienia umieszczania postów

  • Nie możesz zakładać nowych tematów
  • Nie możesz pisać wiadomości
  • Nie możesz dodawać załączników
  • Nie możesz edytować swoich postów
  •