Aktualizacje seriali
 



Ogłoszenia
UFS - dotacje
Dotacje SMS
Jak korzystać z forumowej szukajki



Pokaż wyniki od 1 do 2 z 2

Wątek: The Innkeepers [2011][BDRip][AC3][ENG]

  1. #1
    Retired Awatar Look
     Info : 
    Dołączył
    Jan 2008
    Posty
    4,495
     Podziękowania : 
    Podziękował: 922
    Doceniono: 20,527 razy w 334 postach
     UFS Stats Uploady : 
    Filmy: 595
    Gry: 59
    Programy: 1
    TV's: 72
    Muzyka: 13
    Porno: 1
    Inne: 4
     UFS Stats Konta : 
    Gmail: 172
    Inne: 121
     Total Upload : 
    P2M UP: 2456.2 GB
     Total CA : 
    Total CA: 8670 AC
    Look jest nieaktywny

    mh The Innkeepers [2011][BDRip][AC3][ENG]

    The Innkeepers



    Produkcja: USA
    Data Premiery: 2011-03-12 (świat)
    Reżyseria: Ti West
    Scenariusz: Ti West
    Czas trwania: 100 minut
    Dystrybucja:
    Gatunek: Horror
    Ocena: 5.5



    Z powodu braku klientów Luke i Claire są ostatnimi pracownikami podupadającego hotelu Yankee Pedlar, uważanego przez miejscowych za nawiedzony. Początkowo oboje sądzą, że wszystko jest tylko wymysłem ludzkiej wyobraźni, ale z czasem okazuje się, że hotel rzeczywiście skrywa mroczne tajemnice i duchy zabitych tam ludzi. (derik1984)



    Claire - Sara Paxton
    Luke - Pat Healy
    Leanne Rease-Jones - Kelly McGillis
    Starzec - George Riddle
    Baristka - Lena Dunham
    Wściekła mama - Alison Bartlett
    Oficer Mitchell - John Speredakos
    Chłopak - Jake Schlueter









    General
    Complete name : The.Innkeepers.2011.BDRip.XVID.AC3.HQ.Hive-CM8.avi
    Format : AVI
    Format/Info : Audio Video Interleave
    File size : 1.48 GiB
    Duration : 1h 41mn
    Overall bit rate : 2 094 Kbps
    Writing application : Nandub v1.0rc2
    Writing library : Nandub build 1853/release

    Video
    ID : 0
    Format : MPEG-4 Visual
    Format profile : Advanced Simple@L5
    Format settings, BVOP : 1
    Format settings, QPel : Yes
    Format settings, GMC : No warppoints
    Format settings, Matrix : Default (H.263)
    Muxing mode : Packed bitstream
    Codec ID : XVID
    Codec ID/Hint : XviD
    Duration : 1h 41mn
    Bit rate : 1 637 Kbps
    Width : 720 pixels
    Height : 304 pixels
    Display aspect ratio : 2.40:1
    Frame rate : 23.976 fps
    Color space : YUV
    Chroma subsampling : 4:2:0
    Bit depth : 8 bits
    Scan type : Progressive
    Compression mode : Lossy
    Bits/(Pixel*Frame) : 0.312
    Stream size : 1.16 GiB (78%)
    Writing library : XviD 1.2.1 (UTC 2008-12-04)

    Audio
    ID : 1
    Format : AC-3
    Format/Info : Audio Coding 3
    Mode extension : CM (complete main)
    Codec ID : 2000
    Duration : 1h 41mn
    Bit rate mode : Constant
    Bit rate : 448 Kbps
    Channel(s) : 6 channels
    Channel positions : Front: L C R, Side: L R, LFE
    Sampling rate : 48.0 KHz
    Bit depth : 16 bits
    Compression mode : Lossy
    Stream size : 325 MiB (21%)
    Alignment : Split accross interleaves
    Interleave, duration : 42 ms (1.00 video frame)
    Interleave, preload duration : 500 ms



    Nazwa pliku: The.Innkeepers.2011.BDRip.XVID.AC3.HQ.Hive-CM8.avi
    Ilość plików na koncie: 217
    Rozmiar segmentu: 7
    Wielkość uploadu: 1,48GB
    Ilość mirrorów: 9
    Hasło: www.ufs.pl

    Masz problem z programem MoorHunt? Zajrzyj do działu Poradniki & FAQ tego programu.
    Zalecamy pobieranie za pomocą MailShare







    Przepraszamy, ale nie możesz zobaczyć tego tematu. Musisz sie Zarejestrować
    albo Zalogować

    Upload wykonany w MH 0.6.7.2
    Ostatnio edytowane przez Santi ; 11-04-2012 o 17:13


    MEMBER > FULL MEMBER > UFS TRIAL > KREATOR > FULL MEMBER > UFS TRIAL > UPLOADER > SUPER UPLOADER > UFS ELITE>MODERATOR>


    +


  2. Liczba osób które doceniły autora: 1


  3.    Sponsored Links




  4. #2
    Masterix Awatar Santi
     Info : 
    Dołączył
    Oct 2008
    Posty
    4,459
     Podziękowania : 
    Podziękował: 593
    Doceniono: 26,939 razy w 338 postach
     UFS Stats Uploady : 
    Filmy: 646
    Gry: 46
    Programy: 1
    TV's: 40
    Muzyka: 3
    Inne: 3
     UFS Stats Konta : 
    Gmail: 47
    Inne: 58
     Total Upload : 
    P2M UP: 1136.7 GB
     Total CA : 
    Total CA: 1980 AC
    Santi jest nieaktywny

    Domyślnie




    !! Wzajemny Szacunek podstawą sprawnego działania Forum !!

Informacje o wątku

Użytkownicy przeglądający ten wątek

Aktualnie 1 użytkownik(ów) przegląda ten wątek. (0 zarejestrowany(ch) oraz 1 gości)

Podobne wątki

  1. 0.7GB The Innkeepers [2011][DVDRip][ENG]
    Przez eMPeK w dziale HQ (High Quality - Wysoka Jakość)
    Odpowiedzi: 1
    Ostatni post / autor: 12-04-2012, 22:53

Uprawnienia umieszczania postów

  • Nie możesz zakładać nowych tematów
  • Nie możesz pisać wiadomości
  • Nie możesz dodawać załączników
  • Nie możesz edytować swoich postów
  •