Aktualizacje seriali
 



Ogłoszenia
UFS - dotacje
Dotacje SMS
Jak korzystać z forumowej szukajki



Pokaż wyniki od 1 do 3 z 3

Wątek: Hysteria [2011][BDRip][AC3][ENG]

  1. #1
    Retired Awatar Look
     Info : 
    Dołączył
    Jan 2008
    Posty
    4,498
     Podziękowania : 
    Podziękował: 925
    Doceniono: 20,533 razy w 334 postach
     UFS Stats Uploady : 
    Filmy: 595
    Gry: 59
    Programy: 1
    TV's: 72
    Muzyka: 13
    Porno: 1
    Inne: 4
     UFS Stats Konta : 
    Gmail: 172
    Inne: 121
     Total Upload : 
    P2M UP: 2456.2 GB
     Total CA : 
    Total CA: 8670 AC
    Look jest nieaktywny

    mh Hysteria [2011][BDRip][AC3][ENG]

    Hysteria
    Histeria




    Produkcja: Niemcy | Francja | Luksemburg | Wielka Brytania
    Data Premiery: 2012-03-02 (kino), 2011-09-15 (świat)
    Reżyseria: Tanya Wexler
    Scenariusz: Jonah Lisa Dyer (również) (historia), Stephen Dyer (również) (historia)
    Czas trwania: 100 minut
    Dystrybucja: Hagi
    Gatunek: Komedia | Romans
    Ocena: 7.0



    Czasy wiktoriańskie, Anglia, około roku 1880. Młody lekarz, Mortimer Granville, zmęczony praktykami, zaczyna pracować dla Doktora Dalrymple, który leczy kobiece "nastroje", w sposób manualny, stymulując "ulgę". Mortimer, który ma już dość mokrej roboty, wpada na pewien pomysł. W ten sposób powstał pierwszy wibrator. (Filip_Borkowski)



    Charlotte Dalrymple - Maggie Gyllenhaal
    Dr Mortimer Granville - Hugh Dancy
    Dr Robert Dalrymple - Jonathan Pryce
    Emily Dalrymple - Felicity Jones
    Lord Edmund St. John-Smythe - Rupert Everett
    Fanny - Ashley Jensen
    Molly "Lolly" - Sheridan Smith
    - Tobias Menzies









    General
    Complete name : Hysteria.2011.BDRip.XVID.AC3.HQ.Hive-CM8.avi
    Format : AVI
    Format/Info : Audio Video Interleave
    File size : 1.39 GiB
    Duration : 1h 35mn
    Overall bit rate : 2 093 Kbps
    Writing application : Nandub v1.0rc2
    Writing library : Nandub build 1853/release

    Video
    ID : 0
    Format : MPEG-4 Visual
    Format profile : Advanced Simple@L5
    Format settings, BVOP : 2
    Format settings, QPel : Yes
    Format settings, GMC : No warppoints
    Format settings, Matrix : Default (H.263)
    Muxing mode : Packed bitstream
    Codec ID : XVID
    Codec ID/Hint : XviD
    Duration : 1h 35mn
    Bit rate : 1 700 Kbps
    Width : 720 pixels
    Height : 304 pixels
    Display aspect ratio : 2.35:1
    Frame rate : 25.000 fps
    Color space : YUV
    Chroma subsampling : 4:2:0
    Bit depth : 8 bits
    Scan type : Progressive
    Compression mode : Lossy
    Bits/(Pixel*Frame) : 0.311
    Stream size : 1.13 GiB (81%)
    Writing library : XviD 1.2.1 (UTC 2008-12-04)

    Audio
    ID : 1
    Format : AC-3
    Format/Info : Audio Coding 3
    Mode extension : CM (complete main)
    Codec ID : 2000
    Duration : 1h 35mn
    Bit rate mode : Constant
    Bit rate : 384 Kbps
    Channel(s) : 6 channels
    Channel positions : Front: L C R, Side: L R, LFE
    Sampling rate : 48.0 KHz
    Bit depth : 16 bits
    Compression mode : Lossy
    Stream size : 262 MiB (18%)
    Alignment : Split accross interleaves
    Interleave, duration : 40 ms (1.00 video frame)
    Interleave, preload duration : 500 ms



    Nazwa pliku: Hysteria.2011.BDRip.XVID.AC3.HQ.Hive-CM8.avi
    Ilość plików na koncie: 204
    Rozmiar segmentu: 7
    Wielkość uploadu: 1,39GB
    Ilość mirrorów: 9
    Hasło: www.ufs.pl

    Masz problem z programem MoorHunt? Zajrzyj do działu Poradniki & FAQ tego programu.
    Zalecamy pobieranie za pomocą MailShare







    Przepraszamy, ale nie możesz zobaczyć tego tematu. Musisz sie Zarejestrować
    albo Zalogować

    Upload wykonany w MH 0.6.7.2
    Ostatnio edytowane przez Santi ; 11-04-2012 o 17:05


    MEMBER > FULL MEMBER > UFS TRIAL > KREATOR > FULL MEMBER > UFS TRIAL > UPLOADER > SUPER UPLOADER > UFS ELITE>MODERATOR>


    +


  2.    Sponsored Links




  3. #2
    Masterix Awatar Santi
     Info : 
    Dołączył
    Oct 2008
    Posty
    4,459
     Podziękowania : 
    Podziękował: 593
    Doceniono: 26,941 razy w 338 postach
     UFS Stats Uploady : 
    Filmy: 646
    Gry: 46
    Programy: 1
    TV's: 40
    Muzyka: 3
    Inne: 3
     UFS Stats Konta : 
    Gmail: 47
    Inne: 58
     Total Upload : 
    P2M UP: 1136.7 GB
     Total CA : 
    Total CA: 1980 AC
    Santi jest nieaktywny

    Domyślnie




    !! Wzajemny Szacunek podstawą sprawnego działania Forum !!

  4. #3
    Full Member
     Info : 
    Dołączył
    Oct 2007
    Posty
    169
     Podziękowania : 
    Podziękował: 167
    Doceniono: 0 razy w 0 postach
    mivchal jest nieaktywny

    Domyślnie

    Film ściągnięty bez problemów ale napisy nie są zsynchronizowane z filmem, a szukałem innych ale nic nie znalazłem

Informacje o wątku

Użytkownicy przeglądający ten wątek

Aktualnie 1 użytkownik(ów) przegląda ten wątek. (0 zarejestrowany(ch) oraz 1 gości)

Uprawnienia umieszczania postów

  • Nie możesz zakładać nowych tematów
  • Nie możesz pisać wiadomości
  • Nie możesz dodawać załączników
  • Nie możesz edytować swoich postów
  •