Aktualizacje seriali
 



Ogłoszenia
UFS - dotacje
Dotacje SMS
Jak korzystać z forumowej szukajki



Pokaż wyniki od 1 do 2 z 2

Wątek: Contraband [2012][DVDScr][AC3][ENG]

  1. #1
    Retired Awatar Look
     Info : 
    Dołączył
    Jan 2008
    Posty
    4,497
     Podziękowania : 
    Podziękował: 924
    Doceniono: 20,531 razy w 334 postach
     UFS Stats Uploady : 
    Filmy: 595
    Gry: 59
    Programy: 1
    TV's: 72
    Muzyka: 13
    Porno: 1
    Inne: 4
     UFS Stats Konta : 
    Gmail: 172
    Inne: 121
     Total Upload : 
    P2M UP: 2456.2 GB
     Total CA : 
    Total CA: 8670 AC
    Look jest nieaktywny

    mh Contraband [2012][DVDScr][AC3][ENG]

    Contraband
    Kontrabanda




    Produkcja: USA | Wielka Brytania
    Data Premiery: 2012-01-27 (kino), 2012-01-13 (świat)
    Reżyseria: Baltasar Kormákur
    Scenariusz: Aaron Guzikowski
    Czas trwania: 110 minut
    Dystrybucja: UIP - United International Pictures
    Gatunek: Thriller
    Ocena: 6.9



    Mający kłopoty finansowe pracownik ochrony rozważa powrót do swojej dawnego zajęcia, którym był przemyt. Nadarza się ku temu okazja, kiedy jeden z jego dawnych współpracowników przedstawia mu pomysł na potencjalnie lukratywną akcję... (Perfik)



    Kate Farraday - Kate Beckinsale
    Chris Farraday - Mark Wahlberg
    Kapitan - J.K. Simmons
    Sebastian Abney - Ben Foster
    Tim Briggs - Giovanni Ribisi
    Gonzalo - Diego Luna
    Danny Raymer - Lukas Haas
    Andy - Caleb Landry Jones









    Video
    ID : 0
    Format : MPEG-4 Visual
    Format profile : Advanced Simple@L5
    Format settings, BVOP : 2
    Format settings, QPel : Yes
    Format settings, GMC : No warppoints
    Format settings, Matrix : Default (H.263)
    Muxing mode : Packed bitstream
    Codec ID : XVID
    Codec ID/Hint : XviD
    Duration : 1h 49mn
    Bit rate : 1 700 Kbps
    Width : 720 pixels
    Height : 304 pixels
    Display aspect ratio : 2.35:1
    Frame rate : 29.970 fps
    Color space : YUV
    Chroma subsampling : 4:2:0
    Bit depth : 8 bits
    Scan type : Progressive
    Compression mode : Lossy
    Bits/(Pixel*Frame) : 0.259
    Stream size : 1.30 GiB (86%)
    Writing library : XviD 1.2.1 (UTC 2008-12-04)

    Audio
    ID : 1
    Format : AC-3
    Format/Info : Audio Coding 3
    Mode extension : CM (complete main)
    Codec ID : 2000
    Duration : 1h 49mn
    Bit rate mode : Constant
    Bit rate : 256 Kbps
    Channel(s) : 2 channels
    Channel positions : Front: L R
    Sampling rate : 48.0 KHz
    Bit depth : 16 bits
    Compression mode : Lossy
    Stream size : 201 MiB (13%)
    Alignment : Split accross interleaves
    Interleave, duration : 33 ms (1.00 video frame)
    Interleave, preload duration : 500 ms



    Nazwa pliku: Contraband.2012.DVDScr.XVID.AC3.HQ.Hive-CM8.avi
    Ilość plików na koncie: 221
    Rozmiar segmentu: 7
    Wielkość uploadu:1,51GB
    Ilość mirrorów: 9
    Hasło: www.ufs.pl

    Masz problem z programem MoorHunt? Zajrzyj do działu Poradniki & FAQ tego programu.
    Zalecamy pobieranie za pomocą MailShare







    Przepraszamy, ale nie możesz zobaczyć tego tematu. Musisz sie Zarejestrować
    albo Zalogować

    Upload wykonany w MH 0.6.7.2


    MEMBER > FULL MEMBER > UFS TRIAL > KREATOR > FULL MEMBER > UFS TRIAL > UPLOADER > SUPER UPLOADER > UFS ELITE>MODERATOR>


    +


  2.    Sponsored Links




  3. #2
    Masterix Awatar Santi
     Info : 
    Dołączył
    Oct 2008
    Posty
    4,459
     Podziękowania : 
    Podziękował: 593
    Doceniono: 26,940 razy w 338 postach
     UFS Stats Uploady : 
    Filmy: 646
    Gry: 46
    Programy: 1
    TV's: 40
    Muzyka: 3
    Inne: 3
     UFS Stats Konta : 
    Gmail: 47
    Inne: 58
     Total Upload : 
    P2M UP: 1136.7 GB
     Total CA : 
    Total CA: 1980 AC
    Santi jest nieaktywny

    Domyślnie




    !! Wzajemny Szacunek podstawą sprawnego działania Forum !!

Informacje o wątku

Użytkownicy przeglądający ten wątek

Aktualnie 1 użytkownik(ów) przegląda ten wątek. (0 zarejestrowany(ch) oraz 1 gości)

Podobne wątki

  1. Contraband [2012][BDRip][AC3][ENG]
    Przez Look w dziale HQ (High Quality - Wysoka Jakość)
    Odpowiedzi: 4
    Ostatni post / autor: 15-04-2012, 21:39
  2. Contraband [2012][DVDScr][AC3][ENG][Napisy PL]
    Przez adam12 w dziale HQ (High Quality - Wysoka Jakość)
    Odpowiedzi: 1
    Ostatni post / autor: 09-04-2012, 14:02

Uprawnienia umieszczania postów

  • Nie możesz zakładać nowych tematów
  • Nie możesz pisać wiadomości
  • Nie możesz dodawać załączników
  • Nie możesz edytować swoich postów
  •