Aktualizacje seriali
 



Ogłoszenia
UFS - dotacje
Dotacje SMS
Jak korzystać z forumowej szukajki



Pokaż wyniki od 1 do 2 z 2

Wątek: Morning Glory [2010][DVDRip][ENG]

  1. #1
    Retired Awatar Look
     Info : 
    Dołączył
    Jan 2008
    Posty
    4,498
     Podziękowania : 
    Podziękował: 925
    Doceniono: 20,533 razy w 334 postach
     UFS Stats Uploady : 
    Filmy: 595
    Gry: 59
    Programy: 1
    TV's: 72
    Muzyka: 13
    Porno: 1
    Inne: 4
     UFS Stats Konta : 
    Gmail: 172
    Inne: 121
     Total Upload : 
    P2M UP: 2456.2 GB
     Total CA : 
    Total CA: 8670 AC
    Look jest nieaktywny

    mh Morning Glory [2010][DVDRip][ENG]

    Morning Glory



    Produkcja: USA
    Gatunek: Komedia
    Data premiery: 2011-03-25 (kino), 2010-11-12 (świat), 2011-08-08 (dvd)
    Reżyseria: Roger Michell
    Scenariusz: Aline Brosh McKenna
    Czas trwania: 102 minut
    Ocena: 6.7




    Dla Becky (Rachel McAdams, Pamiętnik), wydawanie programu telewizyjnego w Nowym Jorku było spełnieniem marzeń... do czasu, kiedy prowadzący go Mike (Harrison Ford, Poszukiwacze Zaginionej Arki) i Colleen (Diane Keaton, Lepiej późno niż później) wypowiedzieli sobie wielką, otwartą wojnę. Zrobienie dobrego programu z obsadą pełną ekscentryków i skandalicznymi historiami graniczy z cudem, ale Becky zrobi wszystko, by sprostać temu zadaniu. (opis dystrybutora)


    Rachel McAdams - Becky Fuller
    Harrison Ford - Mike Pomeroy
    Diane Keaton - Colleen Peck
    Patrick Wilson - Adam Bennett
    Jeff Goldblum - Jerry Barnes
    John Pankow - Lenny Bergman
    Matt Malloy - Ernie Appleby
    Patti D'Arbanville - Mama Becky






    General
    Format : AVI
    Format/Info : Audio Video Interleave
    File size : 700 MiB
    Duration : 1h 47mn
    Overall bit rate : 911 Kbps
    Writing application : VirtualDubMod 1.5.10.2 (build 2540/release)
    Writing library : VirtualDubMod build 2540/release

    Video
    ID : 0
    Format : MPEG-4 Visual
    Format profile : Advanced Simple@L5
    Format settings, BVOP : 1
    Format settings, QPel : No
    Format settings, GMC : No warppoints
    Format settings, Matrix : Default (MPEG)
    Codec ID : XVID
    Codec ID/Hint : XviD
    Duration : 1h 47mn
    Bit rate : 770 Kbps
    Width : 640 pixels
    Height : 272 pixels
    Display aspect ratio : 2.35:1
    Frame rate : 23.976 fps
    Color space : YUV
    Chroma subsampling : 4:2:0
    Bit depth : 8 bits
    Scan type : Progressive
    Compression mode : Lossy
    Bits/(Pixel*Frame) : 0.185
    Stream size : 592 MiB (85%)
    Writing library : XviD 1.2.1 (UTC 2008-12-04)

    Audio
    ID : 1
    Format : MPEG Audio
    Format version : Version 1
    Format profile : Layer 3
    Mode : Joint stereo
    Mode extension : MS Stereo
    Codec ID : 55
    Codec ID/Hint : MP3
    Duration : 1h 47mn
    Bit rate mode : Variable
    Bit rate : 128 Kbps
    Channel(s) : 2 channels
    Sampling rate : 48.0 KHz
    Compression mode : Lossy
    Delay relative to video : 336ms
    Stream size : 98.3 MiB (14%)
    Alignment : Split accross interleaves
    Interleave, duration : 24 ms (0.58 video frame)
    Interleave, preload duration : 1069 ms
    Writing library : LAME3.90.
    Encoding settings : -m j -V 4 -q 2 -lowpass 17.6 --abr 128



    Nazwa pliku:
    Ilość plików na koncie: 100
    Rozmiar segmentu: 7
    Wielkość uploadu: 700
    Ilość mirrorów: 9
    Hasło: www.ufs.pl






    Przepraszamy, ale nie możesz zobaczyć tego tematu. Musisz sie Zarejestrować
    albo Zalogować




    Created by URG2 Beta 1.1.2 by PoziomeQ


    MEMBER > FULL MEMBER > UFS TRIAL > KREATOR > FULL MEMBER > UFS TRIAL > UPLOADER > SUPER UPLOADER > UFS ELITE>MODERATOR>


    +


  2. Liczba osób które doceniły autora: 1


  3.    Sponsored Links




  4. #2
    Retired Awatar filout
     Info : 
    Dołączył
    Feb 2008
    Posty
    1,695
     Podziękowania : 
    Podziękował: 264
    Doceniono: 10 razy w 8 postach
    filout jest nieaktywny

    Domyślnie

    niezatwierdzone
    każdy problem ma rozwiązanie
    jeśli nie ma rozwiązania to nie ma problemu

Informacje o wątku

Użytkownicy przeglądający ten wątek

Aktualnie 1 użytkownik(ów) przegląda ten wątek. (0 zarejestrowany(ch) oraz 1 gości)

Uprawnienia umieszczania postów

  • Nie możesz zakładać nowych tematów
  • Nie możesz pisać wiadomości
  • Nie możesz dodawać załączników
  • Nie możesz edytować swoich postów
  •